Loading...
Error

Вдали от обезумевшей толпы / Far from the Madding Crowd (Томас Винтерберг) [2015 г., драма, мелодрама, HDRip] Dub

Статистика раздачи
Размер:  1,45 GB   |    Зарегистрирован:  1 год 4 месяца   |    Скачан:  40 раз

Полного источника не было: 3 месяца 20 дней

Сидов:  0  |  0 KB/s  ]   Личеров:  0  |  0 KB/s  ]

* - сиды/пиры с внешних источников

   
 
Автор Сообщение

makkol Пол:Муж

29-Июл-2015 22:04

Вдали от обезумевшей толпы / Far from the Madding Crowd


Год выпуска: 2015
Жанр: драма, мелодрама
Производство: Великобритания , США [BBC Films, DNA Films, Fox Searchlight Pictures]
Режиссер: Томас Винтерберг
В ролях: Кэри Маллиган, Маттиас Шонартс, Майкл Шин, Джуно Темпл, Том Стёрридж, Тилли Восберг, Марк Уингетт, Дориан Лок, Сэм Филлипс, Брэдли Холл
Сюжет фильма:
Унаследовав от дядюшки богатую ферму, юная Батшеба Эвердин энергично берется за дело, набрав себе рабочих. Берет она и разорившегося фермера Габриэля Оука - человека опытного и честного. Габриэль в свое время просил её руки, но потерпел неудачу. Теперь ей предлагает руку и сердце сосед, зажиточный фермер Уильям Болдвуд, но своенравная Батшеба пока не соглашается стать женой, попросив себе время на раздумья. Встреча с самовлюбленным красавцем сержантом Фрэнком Троем становится роковой для Батшебы...

  • Мировая премьера: 17 апреля 2015
  • Российская премьера: 2 июля 2015


Качество видео: HDRip

Продолжительность: 01:58:52
Формат: AVI
Видео: XviD, 720x304 (2.35:1), 23.976 fps, 1359 kbps
Аудио: русский, дублированный (iTunes), AC3 5.1, 48 kHz, 384 kbps

Код:

Общее
Полное имя                               :8dali.Ot.0bezumevshei.To1pi.2015.D.HDRip.avi
Формат                                   : AVI
Формат/Информация                        : Audio Video Interleave
Размер файла                             : 1,45 Гбайт
Продолжительность                        : 1 ч. 58 м.
Общий поток                              : 1752 Кбит/сек
Программа кодирования                    : VirtualDubMod 1.5.10.3 | | (build 2550/release)
Библиотека кодирования                   : VirtualDubMod build 2550/release

Видео
Идентификатор                            : 0
Формат                                   : MPEG-4 Visual
Профиль формата                          : Advanced Simple@L5
Параметр BVOP формата                    : 2
Параметр QPel формата                    : Нет
Параметр GMC формата                     : Без точки перехода
Параметр матрицы формата                 : Default (MPEG)
Идентификатор кодека                     : XVID
Идентификатор кодека/Подсказка           : XviD
Продолжительность                        : 1 ч. 58 м.
Битрейт                                  : 1359 Кбит/сек
Ширина                                   : 720 пикселей
Высота                                   : 304 пикселя
Соотношение сторон                       : 2,35:1
Частота кадров                           : 23,976 кадра/сек
Цветовое пространство                    : YUV
Субдискретизация насыщенности            : 4:2:0
Битовая глубина                          : 8 бит
Тип развёртки                            : Прогрессивная
Метод сжатия                             : С потерями
Бит/(Пиксели*Кадры)                      : 0.259
Размер потока                            : 1,13 Гбайт (78%)
Библиотека кодирования                   : XviD 1.2.1 (UTC 2008-12-04)

Аудио
Идентификатор                            : 1
Формат                                   : AC-3
Формат/Информация                        : Audio Coding 3
Расширение режима                        : CM (complete main)
Параметр Endianness формата              : Big
Идентификатор кодека                     : 2000
Продолжительность                        : 1 ч. 58 м.
Вид битрейта                             : Постоянный
Битрейт                                  : 384 Кбит/сек
Каналы                                   : 6 каналов
Расположение каналов                     : Front: L C R, Side: L R, LFE
Частота                                  : 48,0 КГц
Битовая глубина                          : 16 бит
Метод сжатия                             : С потерями
Размер потока                            : 326 Мбайт (22%)
Выравнивание                             : Разделение по промежуткам
Продолжительность промежутка             : 42  мс. (1,00 видеокадр)
Время предзагрузки промежутка            : 500  мс.
Релиз группы:

picpicpicpicpic
Для увеличения картинки щелкните мышкой по превью

Этот торрент недоступен для скачивания без регистрации, однако доступен по публичной magnet-ссылке (источники с публичных трекеров). Перед использованием ссылки прочтите, пожалуйста Пользовательское соглашение, а также как можно дольше оставайтесь на раздаче! Для того, чтобы скачать сам торрент-файл (который видит больше источников), а также для того, чтобы поблагодарить релизера, вам необходимо зарегистрироваться. Если регистрироваться лень - вы можете также попробовать скачать релиз по нашим партнерским ссылкам ниже.

[underverse.su].t56481.torrent
Трекер: Зарегистрирован   [ 29.07.2015 22:04 ]  

Статус: T временная (by makkol at 08.08.2015 14:47)
Поблагодарили: 2 человека
Тип торрента: публичный - доступные источники с открытых трекеров: 
Размер: 1,45 GB (занимает 1/3 DVDR, для записи нужно 1 болванка DVDR/RW)
 
 
Похожие темы
Форум Тема Автор Торрент Отв. Посл. сооб.
T Зарубежное кино [HDDVDRip / BDRip / WEB-DL / HDTV 1080/720р] Вдали от обезумевшей толпы / Far from the Madding Crowd (Томас Винтерберг) [2015 г., драма, мелодрама, BDRip 720p] Dub + Original makkol
0 | 0

0 | 420

7

29.07.2015 22:32

T Зарубежное кино [HDDVDRip / BDRip / WEB-DL / HDTV 1080/720р] Вдали от обезумевшей толпы / Far from the Madding Crowd (Томас Винтерберг) [2015 г., драма, мелодрама, BDRip 1080p] Dub + Original makkol
7 | 0

0 | 366

7

29.07.2015 22:45


Яндекс.Метрика powered by Sphinx


В Н И М А Н И Е
Сайт не распространяет и не хранит электронные версии произведений, а лишь бесплатно и без коммерческой выгоды (не требуя взамен платы,
SMS и т.д.) предоставляет доступ к создаваемому пользователями каталогу ссылок на торрент-файлы, которые содержат только списки хеш-сумм.
Убедительная просьба с жалобами обращаться напрямую к пользователю, разместившему торрент файл.

Вверх