Loading...
Error

Из темноты / Out of the Dark (Йуис Килес) [2014 г., ужасы, триллер, HDRip] Dub (Line)

Статистика раздачи
Размер:  1,37 GB   |    Зарегистрирован:  1 год 4 месяца   |    Скачан:  20 раз

Полного источника не было: 28 дней

Сидов:  0  |  0 KB/s  ]   Личеров:  0  |  0 KB/s  ]

* - сиды/пиры с внешних источников

   
 
Автор Сообщение

makkol Пол:Муж

28-Июл-2015 23:10

Из темноты / Out of the Dark


Год выпуска: 2014
Жанр: ужасы, триллер
Производство: США , Колумбия , Испания [Apaches Entertainment, Cactus Flower Producciones, Dynamo, Fast Producciones]
Режиссер: Йуис Килес
В ролях: Пикси Дейвис, Алехандро Ферт, Стивен Ри, Скотт Спидман, Джулия Стайлз
Сюжет фильма:
Пара со своей дочерью переезжают в Колумбию, чтобы заняться делами их семейного обрабатывающего предприятия, но скоро они узнают, что их новый дом населен привидениями…

  • Мировая премьера: 27 августа 2014
  • Российская премьера: 23 апреля 2015


Качество видео: HDRip

Продолжительность: 01:33:28
Формат: AVI
Видео: XviD, 720x304 (2.35:1), 23.976 fps, 1698 kbps
Аудио: русский, дублированный (чистый звук), AC3 2.0, 48 kHz, 384 kbps

Код:

Общее
Полное имя : Iz.TEmn0t1.2015.D.HDRip.1400.avi
Формат : AVI
Формат/Информация : Audio Video Interleave
Размер файла : 1,37 Гбайт
Продолжительность : 1 ч. 33 м.
Общий поток : 2092 Кбит/сек
Программа кодирования : VirtualDubMod 1.5.10.2 (build 2540/release)
Библиотека кодирования : VirtualDubMod build 2540/release

Видео
Идентификатор : 0
Формат : MPEG-4 Visual
Профиль формата : Advanced Simple@L5
Параметр BVOP формата : 2
Параметр QPel формата : Нет
Параметр GMC формата : Без точки перехода
Параметр матрицы формата : Default (MPEG)
Идентификатор кодека : XVID
Идентификатор кодека/Подсказка : XviD
Продолжительность : 1 ч. 33 м.
Битрейт : 1698 Кбит/сек
Ширина : 720 пикселей
Высота : 304 пикселя
Соотношение сторон : 2,35:1
Частота кадров : 23,976 кадра/сек
Цветовое пространство : YUV
Субдискретизация насыщенности : 4:2:0
Битовая глубина : 8 бит
Тип развёртки : Прогрессивная
Метод сжатия : С потерями
Бит/(Пиксели*Кадры) : 0.324
Размер потока : 1,11 Гбайт (81%)
Библиотека кодирования : XviD 1.2.1 (UTC 2008-12-04)

Аудио
Идентификатор : 1
Формат : AC-3
Формат/Информация : Audio Coding 3
Расширение режима : CM (complete main)
Параметр Endianness формата : Big
Идентификатор кодека : 2000
Продолжительность : 1 ч. 33 м.
Вид битрейта : Постоянный
Битрейт : 384 Кбит/сек
Каналы : 2 канала
Расположение каналов : Front: L R
Частота : 48,0 КГц
Битовая глубина : 16 бит
Метод сжатия : С потерями
Размер потока : 257 Мбайт (18%)
Выравнивание : Разделение по промежуткам
Продолжительность промежутка : 42 мс. (1,00 видеокадр)
Время предзагрузки промежутка : 500 мс.
picpicpicpicpic
Для увеличения картинки щелкните мышкой по превью

Этот торрент недоступен для скачивания без регистрации, однако доступен по публичной magnet-ссылке (источники с публичных трекеров). Перед использованием ссылки прочтите, пожалуйста Пользовательское соглашение, а также как можно дольше оставайтесь на раздаче! Для того, чтобы скачать сам торрент-файл (который видит больше источников), а также для того, чтобы поблагодарить релизера, вам необходимо зарегистрироваться. Если регистрироваться лень - вы можете также попробовать скачать релиз по нашим партнерским ссылкам ниже.

[underverse.su].t56446.torrent
Трекер: Зарегистрирован   [ 28.07.2015 23:10 ]  

Статус: T временная (by Паукан at 29.07.2015 09:37)
Поблагодарили: пока никто не поблагодарил...
Тип торрента: публичный - доступные источники с открытых трекеров: 
Размер: 1,37 GB (занимает 0,31 DVDR, для записи нужно 1 болванка DVDR/RW)
 
 
Похожие темы
Форум Тема Автор Торрент Отв. Посл. сооб.
Зарубежное кино [DVDRip, Low-Res HDRip, и т.д.] Из темноты / Out of the Dark (Йуис Килес) [2014 г., триллер, ужасы, WEB-DLRip] DVO (DeadSno & den904) 90ytr90
59 | 2

0 | 748

28

16.01.2015 15:49

Зарубежное кино [DVDRip, Low-Res HDRip, и т.д.] Из темноты / Wui wan yeh / Out of the Dark (Джеффри Лау / Jeffrey Lau) [1995 г., комедия, мистика, WEB-DLRip] VO (Акира) 90ytr90
2 | 0

0 | 508

4

16.01.2015 20:05

Зарубежное кино [DVDRip, Low-Res HDRip, и т.д.] Из темноты / From the Dark (Конор МакМахон) [2014 г., ужасы, HDRip] DVO [den904 & DeadSno] Паукан
141 | 3

0 | 586

20

07.04.2015 13:23

T Зарубежное кино [HDDVDRip / BDRip / WEB-DL / HDTV 1080/720р] Из темноты / Out of the Dark (Йуис Килес) [2014 г., ужасы, триллер, BDRip 1080p] Dub (Line) + Original + Subs (Eng) makkol
12 | 0

0 | 476

11

28.07.2015 23:48

Зарубежное кино [HDDVDRip / BDRip / WEB-DL / HDTV 1080/720р] Из темноты / Out of the Dark (Йуис Килес / Lluis Quilez) [2014 г., триллер, ужасы, BDRip 720p] Dub + Original + Sub (Eng) Паукан
13 | 0

0 | 448

9

30.08.2015 11:25


Яндекс.Метрика powered by Sphinx


В Н И М А Н И Е
Сайт не распространяет и не хранит электронные версии произведений, а лишь бесплатно и без коммерческой выгоды (не требуя взамен платы,
SMS и т.д.) предоставляет доступ к создаваемому пользователями каталогу ссылок на торрент-файлы, которые содержат только списки хеш-сумм.
Убедительная просьба с жалобами обращаться напрямую к пользователю, разместившему торрент файл.

Вверх