Loading...
Error

Малёк / Малек / Spud (Донован Марш) [2010 г., мелодрама, DVDRip] VO + Original

Статистика раздачи
Размер:  2,24 GB   |    Зарегистрирован:  1 год 4 месяца   |    Скачан:  8 раз

Полного источника не было: 5 месяцев 28 дней

Сидов:  0  |  0 KB/s  ]   Личеров:  0  |  0 KB/s  ]

* - сиды/пиры с внешних источников

   
 
Автор Сообщение

makkol Пол:Муж

28-Июл-2015 11:41

Малёк / Малек / Spud


Год выпуска: 2010
Жанр: драма, комедия, семейный
Производство: ЮАР [BLM Productions, Rogue Star Films]
Режиссер: Донован Марш
В ролях: Джон Клиз, Трой Сиван, Джейми Роял, Свен Рюйгрок, Блессинг Яба, Томас Бёрн, Джош Годдард, Тревис Хорнсби, Байрон Лэнгли, Джейсон Коуп, Джена Блэйр, Чарльби Крик, Джулия Саммерс, Аарон Макилрой, Тэнит Феникс, Грэхем Вейр, Бен Восс, Джереми Кратчли
Сюжет фильма:
Южная Африка, 1990 год. Два важнейших события должны вот-вот произойти: освобождение Нельсона Манделы и, главное, первый год Джона Мильтона по прозвищу "Малёк" в частной школе-интернате. Выросшему в не совсем нормальной семейке с отцом-антикоммунистом и сумасшедшей бабушкой на новом месте ему предстоит поучаствовать в яростных крикетных баталиях, запрещенных ночных купаниях, стать "звездой" школьного мюзикла и, конечно, встретить свою первую любовь.
По одноименному роману Джона ван де Рюйта.

  • Мировая премьера: 3 декабря 2010


Перевод: Алексей Простотак
Озвучивание: Вячеслав Прошин

Качество видео: DVDRip

Продолжительность: 01:42:50
Формат: AVI
Видео: XviD, 720x400 (16:9), 25.000 fps, 2200 kbps
Аудио #1: русский, любительский одноголосый закадровый, AC3 5.1, 48 kHz, 448 kbps
Аудио #2: английский, оригинал, AC3 5.1, 48 kHz, 448 kbps

Код:

General
Complete name : Spud.rus.eng.avi
Format : AVI
Format/Info : Audio Video Interleave
Format profile : OpenDML
File size : 2.24 GiB
Duration : 1h 42mn
Overall bit rate : 3 115 Kbps
Writing application : VirtualDubModRus 1.5.10.2 (build 2540/release)
Writing library : VirtualDubMod build 2540/release

Video
ID : 0
Format : MPEG-4 Visual
Format profile : Advanced Simple@L5
Format settings, BVOP : 2
Format settings, QPel : No
Format settings, GMC : No warppoints
Format settings, Matrix : Default (H.263)
Muxing mode : Packed bitstream
Codec ID : XVID
Codec ID/Hint : XviD
Duration : 1h 42mn
Bit rate : 2 200 Kbps
Width : 720 pixels
Height : 400 pixels
Display aspect ratio : 16:9
Frame rate : 25.000 fps
Color space : YUV
Chroma subsampling : 4:2:0
Bit depth : 8 bits
Scan type : Progressive
Compression mode : Lossy
Bits/(Pixel*Frame) : 0.306
Stream size : 1.58 GiB (71%)
Writing library : XviD 63

Audio #1
ID : 1
Format : AC-3
Format/Info : Audio Coding 3
Mode extension : CM (complete main)
Codec ID : 2000
Duration : 1h 42mn
Bit rate mode : Constant
Bit rate : 448 Kbps
Channel(s) : 6 channels
Channel positions : Front: L C R, Side: L R, LFE
Sampling rate : 48.0 KHz
Bit depth : 16 bits
Compression mode : Lossy
Stream size : 330 MiB (14%)
Alignment : Split accross interleaves
Interleave, duration : 40 ms (1.00 video frame)
Interleave, preload duration : 500 ms

Audio #2
ID : 2
Format : AC-3
Format/Info : Audio Coding 3
Mode extension : CM (complete main)
Codec ID : 2000
Duration : 1h 42mn
Bit rate mode : Constant
Bit rate : 448 Kbps
Channel(s) : 6 channels
Channel positions : Front: L C R, Side: L R, LFE
Sampling rate : 48.0 KHz
Bit depth : 16 bits
Compression mode : Lossy
Stream size : 330 MiB (14%)
Alignment : Split accross interleaves
Interleave, duration : 40 ms (1.00 video frame)
Interleave, preload duration : 500 ms
Релиз:

picpicpicpicpic
Для увеличения картинки щелкните мышкой по превью

Этот торрент недоступен для скачивания без регистрации, однако доступен по публичной magnet-ссылке (источники с публичных трекеров). Перед использованием ссылки прочтите, пожалуйста Пользовательское соглашение, а также как можно дольше оставайтесь на раздаче! Для того, чтобы скачать сам торрент-файл (который видит больше источников), а также для того, чтобы поблагодарить релизера, вам необходимо зарегистрироваться. Если регистрироваться лень - вы можете также попробовать скачать релиз по нашим партнерским ссылкам ниже.

[underverse.su].t56426.torrent
Трекер: Зарегистрирован   [ 28.07.2015 11:41 ]  

Статус: проверено (by Паукан at 28.07.2015 13:14)
Поблагодарили: пока никто не поблагодарил...
Тип торрента: публичный - доступные источники с открытых трекеров: 
Размер: 2,24 GB (занимает 0,51 DVDR, для записи нужно 1 болванка DVDR/RW)
 
 
Похожие темы
Форум Тема Автор Торрент Отв. Посл. сооб.
Зарубежное кино [HDDVDRip / BDRip / WEB-DL / HDTV 1080/720р] Малёк / Малек / Spud (Донован Марш) [2010 г., драма, комедия, семейный, BDRip 1080p] VO + Original + Subs makkol
2 | 0

0 | 635

2

28.07.2015 12:09


Яндекс.Метрика powered by Sphinx


В Н И М А Н И Е
Сайт не распространяет и не хранит электронные версии произведений, а лишь бесплатно и без коммерческой выгоды (не требуя взамен платы,
SMS и т.д.) предоставляет доступ к создаваемому пользователями каталогу ссылок на торрент-файлы, которые содержат только списки хеш-сумм.
Убедительная просьба с жалобами обращаться напрямую к пользователю, разместившему торрент файл.

Вверх