Loading...
Error

Хулиган / Hellion (Кэт Кэндлер) [2014 г., драма, триллер, HDRip] Dub

Статистика раздачи
Размер:  1,46 GB   |    Зарегистрирован:  1 год 4 месяца   |    Скачан:  17 раз

Полного источника не было: 8 месяцев

Сидов:  0  |  0 KB/s  ]   Личеров:  0  |  0 KB/s  ]

* - сиды/пиры с внешних источников

   
 
Автор Сообщение

makkol Пол:Муж

28-Июл-2015 10:46

Хулиган / Hellion
«Его ничто не остановит»


Год выпуска: 2014
Жанр: драма, триллер
Производство: США [Across Town Productions, IFC Films, Arts+Labor, Silver Sail Entertainment]
Режиссер: Кэт Кэндлер
В ролях: Аарон Пол, Джульетт Льюис, Джош Уиггинс, Далтон Саттон, Камрон Оуэнс, Дилан Коул, Джонни Марс, Уолт Робертс, Аннали Джеффрис
Сюжет фильма:
Тринадцатилетний Джейкоб всё сложнее поддаётся контролированию. Делинквентное поведение подростка, помешанного на мотокроссе, вносит разлад в его семью. Ситуация окончательно становится взрывоопасной, когда Джейкоб привлекает своего младшего брата, Уэса, к участию в преступлении. Отец Джейкоба, который ещё не смог до конца оправиться после смерти жены, Холлис почти не следит за своими сыновьями. Когда же вмешиваются службы защиты детей и отправляют Уэса жить к его тёте Пэм, Холлису и Джейкобу приходится осознать свою вину, чтобы вернуть Уэса домой.

  • Мировая премьера: 17 января 2014
  • Российская премьера: 2 июля 2015


Качество видео: HDRip

Продолжительность: 01:39:01
Формат: AVI
Видео: XviD, 720x400 (16:9), 23.976 fps, 1719 kbps
Аудио: русский, дублированный (официальный), AC3 2.0, 48 kHz, 384 kbps

Код:

Общее
Полное имя : XuL1gaH.2014.D.HDRip.avi
Формат : AVI
Формат/Информация : Audio Video Interleave
Размер файла : 1,46 Гбайт
Продолжительность : 1 ч. 39 м.
Общий поток : 2112 Кбит/сек
Программа кодирования : VirtualDubMod 1.5.10.2 (build 2540/release)
Библиотека кодирования : VirtualDubMod build 2540/release

Видео
Идентификатор : 0
Формат : MPEG-4 Visual
Профиль формата : Advanced Simple@L5
Параметр BVOP формата : 2
Параметр QPel формата : Нет
Параметр GMC формата : Без точки перехода
Параметр матрицы формата : Default (MPEG)
Идентификатор кодека : XVID
Идентификатор кодека/Подсказка : XviD
Продолжительность : 1 ч. 39 м.
Битрейт : 1719 Кбит/сек
Ширина : 720 пикселей
Высота : 400 пикселей
Соотношение сторон : 16:9
Частота кадров : 23,976 кадра/сек
Цветовое пространство : YUV
Субдискретизация насыщенности : 4:2:0
Битовая глубина : 8 бит
Тип развёртки : Прогрессивная
Метод сжатия : С потерями
Бит/(Пиксели*Кадры) : 0.249
Размер потока : 1,19 Гбайт (81%)
Библиотека кодирования : XviD 1.2.1 (UTC 2008-12-04)

Аудио
Идентификатор : 1
Формат : AC-3
Формат/Информация : Audio Coding 3
Расширение режима : CM (complete main)
Параметр Endianness формата : Big
Идентификатор кодека : 2000
Продолжительность : 1 ч. 39 м.
Вид битрейта : Постоянный
Битрейт : 384 Кбит/сек
Каналы : 2 канала
Расположение каналов : Front: L R
Частота : 48,0 КГц
Битовая глубина : 16 бит
Метод сжатия : С потерями
Размер потока : 272 Мбайт (18%)
Выравнивание : Разделение по промежуткам
Продолжительность промежутка : 42 мс. (1,00 видеокадр)
Время предзагрузки промежутка : 500 мс.
picpicpicpicpic
Для увеличения картинки щелкните мышкой по превью

Этот торрент недоступен для скачивания без регистрации, однако доступен по публичной magnet-ссылке (источники с публичных трекеров). Перед использованием ссылки прочтите, пожалуйста Пользовательское соглашение, а также как можно дольше оставайтесь на раздаче! Для того, чтобы скачать сам торрент-файл (который видит больше источников), а также для того, чтобы поблагодарить релизера, вам необходимо зарегистрироваться. Если регистрироваться лень - вы можете также попробовать скачать релиз по нашим партнерским ссылкам ниже.

[underverse.su].t56421.torrent
Трекер: Зарегистрирован   [ 28.07.2015 10:46 ]  

Статус: проверено (by Паукан at 29.07.2015 09:38)
Поблагодарили: пока никто не поблагодарил...
Тип торрента: публичный - доступные источники с открытых трекеров: 
Размер: 1,46 GB (занимает 0,33 DVDR, для записи нужно 1 болванка DVDR/RW)
 
 
Похожие темы
Форум Тема Автор Торрент Отв. Посл. сооб.
Зарубежное кино [DVDRip, Low-Res HDRip, и т.д.] Хулиган / Hellion (Кэт Кэндлер) [2014 г., Триллер, Драма, WEB-DLRip] VO (RUS, Lord32x) Ведьмочка
126 | 13

0 | 677

13

31.08.2014 13:51

Зарубежное кино [HDDVDRip / BDRip / WEB-DL / HDTV 1080/720р] Хулиган / Hellion (Кэт Кэндлер) [2014 г., Триллер, Драма, WEB-DLRip 720p] VO (RUS, Lord32x) + Original (ENG) Ведьмочка
21 | 2

0 | 589

7

31.08.2014 13:31

Зарубежное кино [HDDVDRip / BDRip / WEB-DL / HDTV 1080/720р] Хулиган / Hellion (Кэт Кэндлер) [2014 г., драма, триллер, BDRip 720p] Dub + Original makkol
3 | 0

0 | 308

2

28.07.2015 10:59

Зарубежное кино [HDDVDRip / BDRip / WEB-DL / HDTV 1080/720р] Хулиган / Hellion (Кэт Кэндлер) [2014 г., драма, триллер, BDRip 1080p] Dub + Original makkol
0 | 0

0 | 480

5

28.07.2015 11:13


Яндекс.Метрика powered by Sphinx


В Н И М А Н И Е
Сайт не распространяет и не хранит электронные версии произведений, а лишь бесплатно и без коммерческой выгоды (не требуя взамен платы,
SMS и т.д.) предоставляет доступ к создаваемому пользователями каталогу ссылок на торрент-файлы, которые содержат только списки хеш-сумм.
Убедительная просьба с жалобами обращаться напрямую к пользователю, разместившему торрент файл.

Вверх