Loading...
Error

Красотки в бегах / Hot Pursuit (Энн Флетчер) [2015 г., боевик, комедия, HDRip] Dub (звук с CAMRip) + Original

Статистика раздачи
Размер:  1,37 GB   |    Зарегистрирован:  1 год 4 месяца   |    Скачан:  70 раз

Полного источника не было: 3 дня

Сидов:  0  |  0 KB/s  ]   Личеров:  0  |  0 KB/s  ]

* - сиды/пиры с внешних источников

   
 
Автор Сообщение

makkol Пол:Муж

28-Июл-2015 10:05

Красотки в бегах / Hot Pursuit
«Вооружены и типа опасны»


Год выпуска: 2015
Жанр: боевик, комедия
Производство: США, Warner Bros. Pictures, New Line Cinema, Metro-Goldwyn-Mayer (MGM), Pacific Standard
Режиссер: Энн Флетчер
В ролях: Риз Уизерспун, София Вергара, Мэттью Дель Негро, Майкл Мосли, Роберт Казински, Ричард Т. Джонс, Бенни Нивз, Майкл Рэй Эскамиллья, Хоакин Косио, Джон Кэрролл Линч
Сюжет фильма:
Добросовестный коп Роуз Купер, дочка шерифа из Сан-Розарио, прилежно служит в архиве департамента и мечтает об опасном спецзадании. Мечты героини сбываются, когда начальство вынужденно доверяет ей охрану важной свидетельницы – жены техасского криминального авторитета. Филипе Риве согласился сдать влиятельного наркобарона, поэтому вместе с супругой Даниэлой теперь охраняется полицией. Офицер Купер клянется выполнить поручение и сопроводить мексиканскую красотку в Даллас, однако подручные наркомафии вносят в полицейские планы свои коррективы. Перед самой поездкой нанятые киллеры убивают Филипе Риве и его охранника, агента ФБР. Выбравшись из-под обстрела, отважная леди-коп решает не отменять опасную командировку и доставить взбалмошную Даниэлу по месту назначения. Вскоре выясняется, что хрупким женщинам угрожают не только разозленные мафиози, но и коррумпированные коллеги Роуз.

  • Мировая премьера: 7 мая 2015
  • Российская премьера: 11 июня 2015


Качество видео: HDRip

Продолжительность: 01:27:31
Формат: AVI
Видео: XviD, 720x304 (2.35:1), 23.976 fps, 1710 kbps
Аудио #1: русский, дублированный (звук с CAMRip), AC3 2.0, 48 kHz, 256 kbps
Аудио #2: английский, оригинал, AC3 2.0, 48 kHz, 256 kbps

Код:

Общее
Полное имя : Kra7otki.v.Begax.2015.D.HDRip.1400Mb.avi
Формат : AVI
Формат/Информация : Audio Video Interleave
Размер файла : 1,37 Гбайт
Продолжительность : 1 ч. 27 м.
Общий поток : 2236 Кбит/сек
Программа кодирования : VirtualDubMod 1.5.10.2 (build 2540/release)
Библиотека кодирования : VirtualDubMod build 2540/release

Видео
Идентификатор : 0
Формат : MPEG-4 Visual
Профиль формата : Advanced Simple@L5
Параметр BVOP формата : 2
Параметр QPel формата : Нет
Параметр GMC формата : Без точки перехода
Параметр матрицы формата : Default (MPEG)
Идентификатор кодека : XVID
Идентификатор кодека/Подсказка : XviD
Продолжительность : 1 ч. 27 м.
Битрейт : 1710 Кбит/сек
Ширина : 720 пикселей
Высота : 304 пикселя
Соотношение сторон : 2,35:1
Частота кадров : 23,976 кадра/сек
Цветовое пространство : YUV
Субдискретизация насыщенности : 4:2:0
Битовая глубина : 8 бит
Тип развёртки : Прогрессивная
Метод сжатия : С потерями
Бит/(Пиксели*Кадры) : 0.326
Размер потока : 1,05 Гбайт (76%)
Библиотека кодирования : XviD 1.2.1 (UTC 2008-12-04)

Аудио #1
Идентификатор : 1
Формат : AC-3
Формат/Информация : Audio Coding 3
Расширение режима : CM (complete main)
Параметр Endianness формата : Big
Идентификатор кодека : 2000
Продолжительность : 1 ч. 27 м.
Вид битрейта : Постоянный
Битрейт : 256 Кбит/сек
Каналы : 2 канала
Расположение каналов : Front: L R
Частота : 48,0 КГц
Битовая глубина : 16 бит
Метод сжатия : С потерями
Размер потока : 160 Мбайт (11%)
Выравнивание : Разделение по промежуткам
Продолжительность промежутка : 42 мс. (1,00 видеокадр)
Время предзагрузки промежутка : 500 мс.

Аудио #2
Идентификатор : 2
Формат : AC-3
Формат/Информация : Audio Coding 3
Расширение режима : CM (complete main)
Параметр Endianness формата : Big
Идентификатор кодека : 2000
Продолжительность : 1 ч. 27 м.
Вид битрейта : Постоянный
Битрейт : 256 Кбит/сек
Каналы : 2 канала
Расположение каналов : Front: L R
Частота : 48,0 КГц
Битовая глубина : 16 бит
Метод сжатия : С потерями
Размер потока : 160 Мбайт (11%)
Выравнивание : Разделение по промежуткам
Продолжительность промежутка : 42 мс. (1,00 видеокадр)
Время предзагрузки промежутка : 500 мс.
picpicpicpicpic
Для увеличения картинки щелкните мышкой по превью

Этот торрент недоступен для скачивания без регистрации, однако доступен по публичной magnet-ссылке (источники с публичных трекеров). Перед использованием ссылки прочтите, пожалуйста Пользовательское соглашение, а также как можно дольше оставайтесь на раздаче! Для того, чтобы скачать сам торрент-файл (который видит больше источников), а также для того, чтобы поблагодарить релизера, вам необходимо зарегистрироваться. Если регистрироваться лень - вы можете также попробовать скачать релиз по нашим партнерским ссылкам ниже.

[underverse.su].t56418.torrent
Трекер: Зарегистрирован   [ 28.07.2015 10:05 ]  

Статус: T временная (by Паукан at 29.07.2015 09:39)
Поблагодарили: пока никто не поблагодарил...
Тип торрента: публичный - доступные источники с открытых трекеров: 
Размер: 1,37 GB (занимает 0,31 DVDR, для записи нужно 1 болванка DVDR/RW)
 
 
Похожие темы
Форум Тема Автор Торрент Отв. Посл. сооб.
T Зарубежное кино [DVDRip, Low-Res HDRip, и т.д.] Красотки в Париже / Sous Les Jupes Des Filles (Одри Дана) [2013 г., Комедия, TS] Dub (RUS) Ведьмочка
5 | 0

0 | 807

32

04.09.2014 17:01

T Зарубежное кино [DVDRip, Low-Res HDRip, и т.д.] Красотки в Париже / Sous Les Jupes Des Filles (Одри Дана) [2013 г., Комедия, WEB-DLRip] MVO (RUS) + Original (FRA) Ведьмочка
12 | 0

0 | 749

36

05.09.2014 13:05

Зарубежное кино [DVDRip, Low-Res HDRip, и т.д.] Красотки в Париже / Sous Les Jupes Des Filles (Одри Дана) [2013 г., Комедия, BDRip] MVO (RUS, Лицензия) Ведьмочка
3 | 0

0 | 442

25

26.09.2014 09:40

Зарубежное кино [DVDRip, Low-Res HDRip, и т.д.] Красотки в Париже / Sous Les Jupes Des Filles (Одри Дана) [2013 г., Комедия, BDRip-AVC] MVO (RUS, Лицензия) + Original (FRA) + Subs (RUS) Ведьмочка
7 | 0

0 | 683

7

11.10.2014 01:57

T Зарубежное кино [DVDRip, Low-Res HDRip, и т.д.] Красотки в бегах / Hot Pursuit (Энн Флетчер) [2015 г., боевик, комедия, HDRip] Dub (Line) + Original makkol
326 | 1

0 | 819

82

01.08.2015 23:33

T Зарубежное кино [DVDRip, Low-Res HDRip, и т.д.] Красотки в бегах / Hot Pursuit (Энн Флетчер) [2015 г., боевик, комедия, HDRip] Dub makkol
245 | 9

0 | 407

30

25.08.2015 22:32

T Зарубежное кино [HDDVDRip / BDRip / WEB-DL / HDTV 1080/720р] Красотки в Париже / Sous Les Jupes Des Filles (Одри Дана) [2013 г., Комедия, WEB-DL 720p] MVO (RUS) + Original (FRA) Ведьмочка
8 | 0

0 | 726

17

05.09.2014 13:00

Зарубежное кино [HDDVDRip / BDRip / WEB-DL / HDTV 1080/720р] Красотки в Париже / Sous Les Jupes Des Filles (Одри Дана) [2013 г., Комедия, BDRip 720p] MVO (RUS, Лицензия) + Subs (RUS) Ведьмочка
22 | 0

0 | 758

8

11.10.2014 02:01

T Зарубежное кино [HDDVDRip / BDRip / WEB-DL / HDTV 1080/720р] Красотки в бегах / Hot Pursuit (Энн Флетчер) [2015 г., боевик, комедия, BDRip 720p] Dub (звук с CAMRip) + Original makkol
12 | 0

0 | 559

9

28.07.2015 10:15

T Зарубежное кино [HDDVDRip / BDRip / WEB-DL / HDTV 1080/720р] Красотки в бегах / Hot Pursuit (Энн Флетчер) [2015 г., боевик, комедия, BDRip 1080p] Dub (звук с CAMRip) + Original makkol
4 | 0

0 | 828

23

28.07.2015 10:25


Яндекс.Метрика powered by Sphinx


В Н И М А Н И Е
Сайт не распространяет и не хранит электронные версии произведений, а лишь бесплатно и без коммерческой выгоды (не требуя взамен платы,
SMS и т.д.) предоставляет доступ к создаваемому пользователями каталогу ссылок на торрент-файлы, которые содержат только списки хеш-сумм.
Убедительная просьба с жалобами обращаться напрямую к пользователю, разместившему торрент файл.

Вверх