Loading...
Error

За закатом расcвет / Away and Back (Джефф Блекнер) [2015 г., драма, комедия, WEB-DLRip] MVO

Статистика раздачи
Размер:  1,46 GB   |    Зарегистрирован:  1 год 4 месяца   |    Скачан:  30 раз

Полного источника не было: 6 дней

Сидов:  0  |  0 KB/s  ]   Личеров:  0  |  0 KB/s  ]

* - сиды/пиры с внешних источников

   
 
Автор Сообщение

makkol Пол:Муж

26-Июл-2015 22:24

За закатом расcвет / Away and Back


Год выпуска: 2015
Жанр: драма, комедия
Производство: США [Hallmark Hall of Fame Productions]
Режиссер: Джефф Блекнер
В ролях: Джейсон Ли, Минка Келли, Мэгги Элизабет Джонс, Джарен Льюисон, Коннор Пейтон, Дэвид Нэйсом, Джарод Джозеф, Райан Норткотт
Сюжет фильма:
Джек – отец-одиночка, воспитывающий троих детей. Вся их семья живет на берегу озера, который в свою очередь граничит с национальным парком, где орнитологи изучают одних из самых красивых птиц – лебедей. И так уж случилось, что одна лебединая пара обустроила свое гнездо как раз неподалеку от того места, где проживают наши герои. И если Джек и его старший сын к этому соседству равнодушны, то младшие - Френки и Кайл решили проявить любопытство. Их визит к гнезду не остался не замеченным. В результате этого пара лебедей атаковала двух детей, нанеся травму старшему из них. А чтобы им и впредь неповадно было соваться – птицы решили нанести свой визит, но только ночью. Но для одной из них этот полет будет последним в ее жизни...

  • Мировая премьера: 26 января 2015


Качество видео: WEB-DLRip

Продолжительность: 01:36:22
Формат: AVI
Видео: XviD, 720x400 (16:9), 23.976 fps, 1777 kbps
Аудио: русский, профессиональный многоголосый закадровый (iTunes), AC3 5.1, 48 kHz, 384 kbps

Код:

Общее
Полное имя                               : 3a.3akat0m.rasvet.2015.P.WEB-DLRip.1.46GB.avi
Формат                                   : AVI
Формат/Информация                        : Audio Video Interleave
Размер файла                             : 1,46 Гбайт
Продолжительность                        : 1 ч. 36 м.
Общий поток                              : 2170 Кбит/сек
Программа кодирования                    : VirtualDubMod 1.5.10.3 | www.virtualdub-fr.org || (build 2550/release)
Библиотека кодирования                   : VirtualDubMod build 2550/release

Видео
Идентификатор                            : 0
Формат                                   : MPEG-4 Visual
Профиль формата                          : Advanced Simple@L5
Параметр BVOP формата                    : 2
Параметр QPel формата                    : Нет
Параметр GMC формата                     : Без точки перехода
Параметр матрицы формата                 : Default (MPEG)
Идентификатор кодека                     : XVID
Идентификатор кодека/Подсказка           : XviD
Продолжительность                        : 1 ч. 36 м.
Битрейт                                  : 1777 Кбит/сек
Ширина                                   : 720 пикселей
Высота                                   : 400 пикселей
Соотношение сторон                       : 16:9
Частота кадров                           : 23,976 кадра/сек
Цветовое пространство                    : YUV
Субдискретизация насыщенности            : 4:2:0
Битовая глубина                          : 8 бит
Тип развёртки                            : Прогрессивная
Метод сжатия                             : С потерями
Бит/(Пиксели*Кадры)                      : 0.245
Размер потока                            : 1,14 Гбайт (78%)
Библиотека кодирования                   : XviD 1.2.1 (UTC 2008-12-04)

Аудио
Идентификатор                            : 1
Формат                                   : AC-3
Формат/Информация                        : Audio Coding 3
Расширение режима                        : CM (complete main)
Параметр Endianness формата              : Big
Идентификатор кодека                     : 2000
Продолжительность                        : 1 ч. 36 м.
Вид битрейта                             : Постоянный
Битрейт                                  : 384 Кбит/сек
Каналы                                   : 6 каналов
Расположение каналов                     : Front: L C R, Side: L R, LFE
Частота                                  : 48,0 КГц
Битовая глубина                          : 16 бит
Метод сжатия                             : С потерями
Размер потока                            : 265 Мбайт (18%)
Выравнивание                             : Разделение по промежуткам
picpicpicpicpic
Для увеличения картинки щелкните мышкой по превью

Этот торрент недоступен для скачивания без регистрации, однако доступен по публичной magnet-ссылке (источники с публичных трекеров). Перед использованием ссылки прочтите, пожалуйста Пользовательское соглашение, а также как можно дольше оставайтесь на раздаче! Для того, чтобы скачать сам торрент-файл (который видит больше источников), а также для того, чтобы поблагодарить релизера, вам необходимо зарегистрироваться. Если регистрироваться лень - вы можете также попробовать скачать релиз по нашим партнерским ссылкам ниже.

[underverse.su].t56385.torrent
Трекер: Зарегистрирован   [ 26.07.2015 22:24 ]  

Статус: T временная (by Паукан at 29.07.2015 09:41)
Поблагодарили: 2 человека
Тип торрента: публичный - доступные источники с открытых трекеров: 
Размер: 1,46 GB (занимает 0,33 DVDR, для записи нужно 1 болванка DVDR/RW)
 
 
Похожие темы
Форум Тема Автор Торрент Отв. Посл. сооб.
T Зарубежное кино [HDDVDRip / BDRip / WEB-DL / HDTV 1080/720р] За закатом расcвет / Away and Back (Джефф Блекнер) [2015 г., драма, комедия, WEB-DL 720p] MVO + Original makkol
1 | 0

0 | 459

4

26.07.2015 22:39


Яндекс.Метрика powered by Sphinx


В Н И М А Н И Е
Сайт не распространяет и не хранит электронные версии произведений, а лишь бесплатно и без коммерческой выгоды (не требуя взамен платы,
SMS и т.д.) предоставляет доступ к создаваемому пользователями каталогу ссылок на торрент-файлы, которые содержат только списки хеш-сумм.
Убедительная просьба с жалобами обращаться напрямую к пользователю, разместившему торрент файл.

Вверх