Loading...
Error

Восставшие мертвецы / Dead Rising: Watchtower (Зак Липовски) [2015 г., ужасы, HDRip] DVO

Статистика раздачи
Размер:  1,46 GB   |    Зарегистрирован:  1 год 4 месяца   |    Скачан:  38 раз

Полного источника не было: 3 месяца 25 дней

Сидов:  0  |  0 KB/s  ]   Личеров:  0  |  0 KB/s  ]

* - сиды/пиры с внешних источников

   
 
Автор Сообщение

makkol Пол:Муж

26-Июл-2015 21:54

Восставшие мертвецы / Dead Rising: Watchtower


Год выпуска: 2015
Жанр: ужасы
Производство: США [Legendary Digital Media, Contradiction Films, Di Bonaventura Pictures]
Режиссер: Зак Липовски
В ролях: Меган Ори, Киган Коннор Трейси, Вирджиния Мэдсен, Дэннис Хэйсберт, Роб Риггл, Джесси Меткалф, Джулия Андерсон, Алекс Паунович, Питер Бенсон, Патрик Сабонгуй, Харли Моренштейн, Кэрри Гензел, С. Эрнст Харт, Сачин Сахель, Гари Джонс, Пол Лейзенби, Мэнни Хасинто, Риз Александр, Тая Клайн, Колтон Квон
Сюжет фильма:
США охватила глобальная эпидемия, в результате которой люди превращаются в кровожадных зомби. Чейз Картер — журналист, который отправляется в опасную зону, вместе с оператором Трейси, чтобы сделать сюжет о надвигающейся катастрофе. Во время съемок они берут интервью у здоровой девушки Кристал, которая рассказывает ужасную правду о том, что в зоне заражения все обречены. В скором порядке власти принимают решение изолировать эту зону, не сделав ничего для эвакуации здоровых людей. Теперь журналисту и группе людей, избежавших заражения, предстоит сделать все возможное, чтобы выбраться из опасной зоны, заполненной кровожадными зомби…

  • Мировая премьера: 27 марта 2015


Качество видео: HDRip

Продолжительность: 01:58:07
Формат: AVI
Видео: XviD, 720x304 (2.35:1), 23.976 fps, 1570 kbps
Аудио: русский, любительский двухголосый закадровый (Sunny-Films), AC3 2.0, 48 kHz, 192 kbps

Код:

Общее
Полное имя                               : MePTBe41Ha.2015.L2.HDRip.1.46Gb.avi
Формат                                   : AVI
Формат/Информация                        : Audio Video Interleave
Размер файла                             : 1,46 Гбайт
Продолжительность                        : 1 ч. 58 м.
Общий поток                              : 1771 Кбит/сек
Программа кодирования                    : VirtualDubMod 1.5.10.3 | www.virtualdub-fr.org || (build 2550/release)
Библиотека кодирования                   : VirtualDubMod build 2550/release

Видео
Идентификатор                            : 0
Формат                                   : MPEG-4 Visual
Профиль формата                          : Advanced Simple@L5
Параметр BVOP формата                    : 2
Параметр QPel формата                    : Нет
Параметр GMC формата                     : Без точки перехода
Параметр матрицы формата                 : Default (MPEG)
Идентификатор кодека                     : XVID
Идентификатор кодека/Подсказка           : XviD
Продолжительность                        : 1 ч. 58 м.
Битрейт                                  : 1570 Кбит/сек
Ширина                                   : 720 пикселей
Высота                                   : 304 пикселя
Соотношение сторон                       : 2,35:1
Частота кадров                           : 23,976 кадра/сек
Цветовое пространство                    : YUV
Субдискретизация насыщенности            : 4:2:0
Битовая глубина                          : 8 бит
Тип развёртки                            : Прогрессивная
Метод сжатия                             : С потерями
Бит/(Пиксели*Кадры)                      : 0.286
Размер потока                            : 1,24 Гбайт (85%)
Библиотека кодирования                   : XviD 1.2.1 (UTC 2008-12-04)

Аудио
Идентификатор                            : 1
Формат                                   : AC-3
Формат/Информация                        : Audio Coding 3
Расширение режима                        : CM (complete main)
Параметр Endianness формата              : Big
Идентификатор кодека                     : 2000
Продолжительность                        : 1 ч. 58 м.
Вид битрейта                             : Постоянный
Битрейт                                  : 192 Кбит/сек
Каналы                                   : 2 канала
Расположение каналов                     : Front: L R
Частота                                  : 48,0 КГц
Битовая глубина                          : 16 бит
Метод сжатия                             : С потерями
Размер потока                            : 162 Мбайт (11%)
Выравнивание                             : Разделение по промежуткам
picpicpicpicpic
Для увеличения картинки щелкните мышкой по превью

Этот торрент недоступен для скачивания без регистрации, однако доступен по публичной magnet-ссылке (источники с публичных трекеров). Перед использованием ссылки прочтите, пожалуйста Пользовательское соглашение, а также как можно дольше оставайтесь на раздаче! Для того, чтобы скачать сам торрент-файл (который видит больше источников), а также для того, чтобы поблагодарить релизера, вам необходимо зарегистрироваться. Если регистрироваться лень - вы можете также попробовать скачать релиз по нашим партнерским ссылкам ниже.

[underverse.su].t56383.torrent
Трекер: Зарегистрирован   [ 26.07.2015 21:54 ]  

Статус: проверено (by Паукан at 29.07.2015 09:41)
Поблагодарили: пока никто не поблагодарил...
Тип торрента: публичный - доступные источники с открытых трекеров: 
Размер: 1,46 GB (занимает 0,33 DVDR, для записи нужно 1 болванка DVDR/RW)
 
 
Похожие темы
Форум Тема Автор Торрент Отв. Посл. сооб.
Зарубежное кино [DVDRip, Low-Res HDRip, и т.д.] Восставшие мертвецы: конец игры / Dead Rising: Endgame (Пэт Уильямс) [2016 г., ужасы, боевик, HDRip] MVO (Paradox & Omskbird records) makkol
105 | 3

0 | 65

1

03.11.2016 14:06

Зарубежное кино [DVDRip, Low-Res HDRip, и т.д.] Восставшие мертвецы / Dead Rising (Зэк Липовски) [2015 г., ужасы, WEB-DLRip] VO [Ворон] Паукан
15 | 2

0 | 614

20

22.04.2015 12:24

Зарубежное кино [DVDRip, Low-Res HDRip, и т.д.] Восставшие мертвецы / Dead Rising (Зэк Липовски) [2015 г., ужасы, боевик, триллер, WEB-DLRip] VO [Ворон] + Original Паукан
21 | 1

0 | 677

36

23.04.2015 12:58

Зарубежное кино [DVDRip, Low-Res HDRip, и т.д.] Восставшие мертвецы: конец игры / Dead Rising: Endgame (Пэт Уильямс) [2016 г., ужасы, боевик, WEBRip] VO makkol
73 | 0

0 | 676

18

01.07.2016 22:18

T Зарубежное кино [DVDRip, Low-Res HDRip, и т.д.] Восставшие мертвецы: конец игры / Dead Rising: Endgame (Пэт Уильямс / Pat Williams) [2016 г., ужасы, боевик, WEBRip] MVO (Parovoz Production) 90ytr90
44 | 0

0 | 473

9

18.07.2016 20:55

T Зарубежное кино [HDDVDRip / BDRip / WEB-DL / HDTV 1080/720р] Восставшие мертвецы: конец игры / Dead Rising: Endgame (Пэт Уильямс / Pat Williams) [2016 г., ужасы, боевик, BDRip 1080p] MVO (Paradox & Omskbird records) + Original (Eng) 90ytr90
43 | 4

0 | 207

2

04.11.2016 03:32

Зарубежное кино [HDDVDRip / BDRip / WEB-DL / HDTV 1080/720р] Восставшие мертвецы: конец игры / Dead Rising: Endgame (Пэт Уильямс / Pat Williams) [2016 г., ужасы, боевик, BDRip 720p] MVO (Paradox & Omskbird records) + Original (Eng) 90ytr90
17 | 0

0 | 66

3

04.11.2016 03:28

Зарубежное кино [HDDVDRip / BDRip / WEB-DL / HDTV 1080/720р] Восставшие мертвецы / Dead Rising: Watchtower (Зак Липовски) [2015 г., ужасы, BDRip 720p] DVO + Original makkol
9 | 1

0 | 538

28

26.07.2015 22:06


Яндекс.Метрика powered by Sphinx


В Н И М А Н И Е
Сайт не распространяет и не хранит электронные версии произведений, а лишь бесплатно и без коммерческой выгоды (не требуя взамен платы,
SMS и т.д.) предоставляет доступ к создаваемому пользователями каталогу ссылок на торрент-файлы, которые содержат только списки хеш-сумм.
Убедительная просьба с жалобами обращаться напрямую к пользователю, разместившему торрент файл.

Вверх