Loading...
Error

Перстень княгини Анны / Pierscien krolowej Anny (Мария Каневска) [1971 г., приключения, DVDRip] Dub

Статистика раздачи
Размер:  1,3 GB   |    Зарегистрирован:  1 год 4 месяца   |    Скачан:  14 раз

Полного источника не было: 10 месяцев

Сидов:  0  |  0 KB/s  ]   Личеров:  0  |  0 KB/s  ]

* - сиды/пиры с внешних источников

   
 
Автор Сообщение

makkol Пол:Муж

26-Июл-2015 15:16

Перстень княгини Анны / Pierscien krolowej Anny


Год выпуска: 1971
Жанр: приключения
Страна: Польша
Режиссер: Мария Каневска
В ролях: Ежи Маталовский, Кшиштоф Строиньский, Вьеслава Квасневска, Петруш Сот, Лайэм Каннингэм, Кристофер Вилльерс
Сюжет фильма:
Трое мальчишек-фантазеров, увлеченные романом Сенкевича "Крестоносцы" во время летних каникул решили обследовать развалины старого замка. Внезапный обвал вызывает сдвиг во времени и они попадают в прошлое, где начинается череда увлекательных и опасных событий. О приключениях, произошедших с ними в замке тевтонских рыцарей, в усадьбе Мазовецкого князя, и рассказывает фильм.

  • Мировая премьера: 2 апреля 1971


Качество видео: DVDRip

Продолжительность: 01:22:19
Формат: AVI
Видео: DivX, 672x416 (1.62:1), 25.000 fps, 2130 kbps
Аудио: русский, дублированный, MP3 2.0, 48 kHz, 128 kbps

Код:

Общее
Полное имя                               : Persten'_knjagini_Anni.avi
Формат                                   : AVI
Формат/Информация                        : Audio Video Interleave
Размер файла                             : 1,30 Гбайт
Продолжительность                        : 1 ч. 22 м.
Общий поток                              : 2268 Кбит/сек
Библиотека кодирования                   : VirtualDub build 24442/release

Видео
Идентификатор                            : 0
Формат                                   : MPEG-4 Visual
Параметр BVOP формата                    : 1
Параметр QPel формата                    : Нет
Параметр GMC формата                     : Без точки перехода
Параметр матрицы формата                 : Default (H.263)
Идентификатор кодека                     : DX50
Идентификатор кодека/Подсказка           : DivX 5
Продолжительность                        : 1 ч. 22 м.
Битрейт                                  : 2130 Кбит/сек
Ширина                                   : 672 пикселя
Высота                                   : 416 пикселей
Соотношение сторон                       : 16:10
Частота кадров                           : 25,000 кадров/сек
Цветовое пространство                    : YUV
Субдискретизация насыщенности            : 4:2:0
Битовая глубина                          : 8 бит
Тип развёртки                            : Прогрессивная
Метод сжатия                             : С потерями
Бит/(Пиксели*Кадры)                      : 0.292
Размер потока                            : 1,17 Гбайт (90%)
Библиотека кодирования                   : DivX 6.2.5 (UTC 2006-07)

Аудио
Идентификатор                            : 1
Формат                                   : MPEG Audio
Версия формата                           : Version 1
Профиль формата                          : Layer 3
Режим                                    : Joint stereo
Расширение режима                        : MS Stereo
Идентификатор кодека                     : 55
Идентификатор кодека/Подсказка           : MP3
Продолжительность                        : 1 ч. 22 м.
Вид битрейта                             : Постоянный
Битрейт                                  : 128 Кбит/сек
Каналы                                   : 2 канала
Частота                                  : 48,0 КГц
Метод сжатия                             : С потерями
Задержка видео                           : 8 мс.
Размер потока                            : 75,4 Мбайт (6%)
Выравнивание                             : Разделение по промежуткам
picpicpicpicpic
Для увеличения картинки щелкните мышкой по превью

Этот торрент недоступен для скачивания без регистрации, однако доступен по публичной magnet-ссылке (источники с публичных трекеров). Перед использованием ссылки прочтите, пожалуйста Пользовательское соглашение, а также как можно дольше оставайтесь на раздаче! Для того, чтобы скачать сам торрент-файл (который видит больше источников), а также для того, чтобы поблагодарить релизера, вам необходимо зарегистрироваться. Если регистрироваться лень - вы можете также попробовать скачать релиз по нашим партнерским ссылкам ниже.

[underverse.su].t56375.torrent
Трекер: Зарегистрирован   [ 26.07.2015 15:16 ]  

Статус: проверено (by nemos at 26.07.2015 17:51)
Поблагодарили: пока никто не поблагодарил...
Тип торрента: публичный - доступные источники с открытых трекеров: 
Размер: 1,3 GB (занимает 0,3 DVDR, для записи нужно 1 болванка DVDR/RW)
 
 

Яндекс.Метрика powered by Sphinx


В Н И М А Н И Е
Сайт не распространяет и не хранит электронные версии произведений, а лишь бесплатно и без коммерческой выгоды (не требуя взамен платы,
SMS и т.д.) предоставляет доступ к создаваемому пользователями каталогу ссылок на торрент-файлы, которые содержат только списки хеш-сумм.
Убедительная просьба с жалобами обращаться напрямую к пользователю, разместившему торрент файл.

Вверх