Loading...
Error

Привет от Майка! / De Groeten van Mike! (Мария Петерс) [2012 г., семейный, HDRip] MVO

Статистика раздачи
Размер:  1,37 GB   |    Зарегистрирован:  1 год 4 месяца   |    Скачан:  8 раз

Полного источника не было: 5 месяцев 21 день

Сидов:  0  |  0 KB/s  ]   Личеров:  0  |  0 KB/s  ]

* - сиды/пиры с внешних источников

   
 
Автор Сообщение

makkol Пол:Муж

26-Июл-2015 13:41

Привет от Майка! / De Groeten van Mike!


Год выпуска: 2012
Жанр: семейный
Производство: Нидерланды [Launch Works, Shooting Star Filmcompany BV]
Режиссер: Мария Петерс
В ролях: Фаас Вэйн, Браха ван Доэсбург, Маас Бронкхойзен, Леона Филиппо, Винсент Кройсет, Рон Де Грун, Боб Фоско, Тьеббо Герритсма
Сюжет фильма:
Маленькому Майку повезло — проведя много месяцев в педиатрической клинике он и врачи все же преодолели тяжелую болезнь! Наконец-то он выздоровел, и может отправиться домой, ведь скоро — Рождество! Но об этом, похоже, забыла мать мальчика — она не спешит забрать сына, как не баловала его и посещениями в эти долгие месяцы выздоровления. И даже когда она все же появляется, выясняется, что забрать Майка она просто не в состоянии... Оставлять его в больнице тоже нет оснований, и руководство больницы подыскивает ему приемную семью. Но мальчик хочет только домой, к маме! Вдвоем со своим лучшим другом Винсентом, тоже пациентом больницы, инвалидом-колясочником, они обдумывают план того, как бы устроить так, чтобы Майк не попал в казенное учреждение за то время, что будет проходить лечение от алкоголизма мать мальчика.

  • Мировая премьера: 12 декабря 2012


Качество видео: HDRip

Продолжительность: 01:34:54
Формат: AVI
Видео: XviD, 720x384 (1.85:1), 24.000 fps, 1861 kbps
Аудио: русский, профессиональный многоголосый закадровый, AC3 2.0, 48 kHz, 192 kbps

Код:

Общее
Полное имя : Privet.ot.Majka.2012.P.HDRip.1400MB.avi
Формат : AVI
Формат/Информация : Audio Video Interleave
Размер файла : 1,37 Гбайт
Продолжительность : 1 ч. 34 м.
Общий поток : 2062 Кбит/сек
Программа кодирования : VirtualDubMod 1.5.10.2 (build 2540/release)
Библиотека кодирования : VirtualDubMod build 2540/release

Видео
Идентификатор : 0
Формат : MPEG-4 Visual
Профиль формата : Advanced Simple@L5
Параметр BVOP формата : 2
Параметр QPel формата : Нет
Параметр GMC формата : Без точки перехода
Параметр матрицы формата : Default (MPEG)
Идентификатор кодека : XVID
Идентификатор кодека/Подсказка : XviD
Продолжительность : 1 ч. 34 м.
Битрейт : 1861 Кбит/сек
Ширина : 720 пикселей
Высота : 384 пикселя
Соотношение сторон : 1,85:1
Частота кадров : 24,000 кадра/сек
Цветовое пространство : YUV
Субдискретизация насыщенности : 4:2:0
Битовая глубина : 8 бит
Тип развёртки : Прогрессивная
Метод сжатия : С потерями
Бит/(Пиксели*Кадры) : 0.280
Размер потока : 1,23 Гбайт (90%)
Библиотека кодирования : XviD 1.2.1 (UTC 2008-12-04)

Аудио
Идентификатор : 1
Формат : AC-3
Формат/Информация : Audio Coding 3
Расширение режима : CM (complete main)
Параметр Endianness формата : Big
Идентификатор кодека : 2000
Продолжительность : 1 ч. 34 м.
Вид битрейта : Постоянный
Битрейт : 192 Кбит/сек
Каналы : 2 канала
Расположение каналов : Front: L R
Частота : 48,0 КГц
Битовая глубина : 16 бит
Метод сжатия : С потерями
Размер потока : 130 Мбайт (9%)
Выравнивание : Разделение по промежуткам
Продолжительность промежутка : 42 мс. (1,00 видеокадр)
Время предзагрузки промежутка : 500 мс.
picpicpicpicpic
Для увеличения картинки щелкните мышкой по превью

Этот торрент недоступен для скачивания без регистрации, однако доступен по публичной magnet-ссылке (источники с публичных трекеров). Перед использованием ссылки прочтите, пожалуйста Пользовательское соглашение, а также как можно дольше оставайтесь на раздаче! Для того, чтобы скачать сам торрент-файл (который видит больше источников), а также для того, чтобы поблагодарить релизера, вам необходимо зарегистрироваться. Если регистрироваться лень - вы можете также попробовать скачать релиз по нашим партнерским ссылкам ниже.

[underverse.su].t56371.torrent
Трекер: Зарегистрирован   [ 26.07.2015 13:41 ]  

Статус: проверено (by nemos at 26.07.2015 17:53)
Поблагодарили: пока никто не поблагодарил...
Тип торрента: публичный - доступные источники с открытых трекеров: 
Размер: 1,37 GB (занимает 0,31 DVDR, для записи нужно 1 болванка DVDR/RW)
 
 
Похожие темы
Форум Тема Автор Торрент Отв. Посл. сооб.
Зарубежное кино [HDDVDRip / BDRip / WEB-DL / HDTV 1080/720р] Привет от Майка! / De Groeten van Mike! (Мария Петерс) [2012 г., семейный, BDRip 1080p] DVO + VO + Original + Subs makkol
0 | 0

0 | 625

0

26.07.2015 14:01

Видео для смартфонов Привет от Катюши / Серии 1-4 (4) [2013 г., Драма, военный, DVDRip] | КПК Чертёнок
1 | 0

0 | 694

16

28.06.2013 08:13

xUSSR сериалы [BD / Remux / BDRip / WEB-DL / HDTV 1080/720р] Привет от "Катюши"/ Серии: 1-4 [4] (Константин Статский) [2013 г., военный, драма, HDTVRip (720p)] nemos
1 | 0

1 | 1001

19

28.05.2013 06:14


Яндекс.Метрика powered by Sphinx


В Н И М А Н И Е
Сайт не распространяет и не хранит электронные версии произведений, а лишь бесплатно и без коммерческой выгоды (не требуя взамен платы,
SMS и т.д.) предоставляет доступ к создаваемому пользователями каталогу ссылок на торрент-файлы, которые содержат только списки хеш-сумм.
Убедительная просьба с жалобами обращаться напрямую к пользователю, разместившему торрент файл.

Вверх