Loading...
Error

Крепись! (Расширенная версия) / Get Hard (Unrated Cut) (Этан Коэн) [2015 г., комедия, BDRip] MVO

Статистика раздачи
Размер:  1,41 GB   |    Зарегистрирован:  1 год 4 месяца   |    Скачан:  51 раз

Полного источника не было: 3 дня

Сидов:  0  |  0 KB/s  ]   Личеров:  0  |  0 KB/s  ]

* - сиды/пиры с внешних источников

   
 
Автор Сообщение

makkol Пол:Муж

26-Июл-2015 10:29

Крепись! (Расширенная версия) / Get Hard (Unrated Cut)
«Нелегко в учении, легко в тюрьме»


Год выпуска: 2015
Жанр: комедия
Производство: США [Gary Sanchez Productions, Warner Bros. Pictures]
Режиссер: Этан Коэн
В ролях: Уилл Феррелл, Кевин Харт, Элисон Бри, Мариана Паола Висенте, Пол Бен-Виктор, Ти-Ай, Ванесса Амайа, Тэрин Террелл, Кристофер Хески
Сюжет фильма:
Миллионер Джеймс Кинг жил себе спокойно, пока его дело не рассмотрели в суде, предъявив обвинение в растрате государственного имущества. Мужчине дали ровно 30 дней на то, чтобы он уладил все свои дела и был готов к отправке в тюрьму. Кинга, который по своей натуре далеко не крепкий орешек, вся эта ситуация пугает и он обращается за помощью к своему мойщику машин. Вместе с Дарнеллом Льюисом будущий зек начинает подготовку к тюремной жизни, которая не щадит слабаков. Такое неожиданное знакомство открывает для героев новые стороны и правды, о которых они и не подозревали.

  • Мировая премьера: 16 марта 2015


Примечание: UNRATED - расширенная версия, длиннее театральной на ~6,5 минут! Полный перевод. Расширенные сцены озвучены Яроцким!

Качество видео: BDRip

Продолжительность: 01:46:44
Формат: AVI
Видео: XviD, 704x400 (16:9), 23.976 fps, 1500 kbps
Аудио: русский, профессиональный многоголосый закадровый (iTunes), AC3 5.1, 48 kHz, 384 kbps

Код:

Общее
Полное имя                               : Krepis.2015.P.BDRip.Unrated_MegaPeer_by_Twi7ter.avi
Формат                                   : AVI
Формат/Информация                        : Audio Video Interleave
Размер файла                             : 1,41 Гбайт
Продолжительность                        : 1 ч. 46 м.
Общий поток                              : 1894 Кбит/сек
Название фильма                          : Krepis.2015.P.BDRip.Unrated_MegaPeer_by_Twi7ter
Режиссёр                                 : Twi7ter
Жанр                                     : Comedy/Crime
Программа кодирования                    : VirtualDubMod 1.5.10.3 (build 2550/release)
Формат оригинала/Имя                     : Movie

Видео
Идентификатор                            : 0
Формат                                   : MPEG-4 Visual
Профиль формата                          : Advanced Simple@L5
Параметр BVOP формата                    : 2
Параметр QPel формата                    : Нет
Параметр GMC формата                     : Без точки перехода
Параметр матрицы формата                 : Выборочная
Идентификатор кодека                     : XVID
Идентификатор кодека/Подсказка           : XviD
Продолжительность                        : 1 ч. 46 м.
Битрейт                                  : 1500 Кбит/сек
Ширина                                   : 704 пикселя
Высота                                   : 400 пикселей
Соотношение сторон                       : 16:9
Частота кадров                           : 23,976 кадра/сек
Цветовое пространство                    : YUV
Субдискретизация насыщенности            : 4:2:0
Битовая глубина                          : 8 бит
Тип развёртки                            : Прогрессивная
Метод сжатия                             : С потерями
Бит/(Пиксели*Кадры)                      : 0.211
Размер потока                            : 1,06 Гбайт (75%)
Библиотека кодирования                   : XviD 73

Аудио
Идентификатор                            : 1
Формат                                   : AC-3
Формат/Информация                        : Audio Coding 3
Расширение режима                        : CM (complete main)
Параметр Endianness формата              : Big
Идентификатор кодека                     : 2000
Продолжительность                        : 1 ч. 46 м.
Вид битрейта                             : Постоянный
Битрейт                                  : 384 Кбит/сек
Каналы                                   : 6 каналов
Расположение каналов                     : Front: L C R, Side: L R, LFE
Частота                                  : 48,0 КГц
Битовая глубина                          : 16 бит
Метод сжатия                             : С потерями
Размер потока                            : 293 Мбайт (20%)
Выравнивание                             : Разделение по промежуткам
Релиз:

picpicpicpicpic
Для увеличения картинки щелкните мышкой по превью

Этот торрент недоступен для скачивания без регистрации, однако доступен по публичной magnet-ссылке (источники с публичных трекеров). Перед использованием ссылки прочтите, пожалуйста Пользовательское соглашение, а также как можно дольше оставайтесь на раздаче! Для того, чтобы скачать сам торрент-файл (который видит больше источников), а также для того, чтобы поблагодарить релизера, вам необходимо зарегистрироваться. Если регистрироваться лень - вы можете также попробовать скачать релиз по нашим партнерским ссылкам ниже.

[underverse.su].t56363.torrent
Трекер: Зарегистрирован   [ 26.07.2015 10:29 ]  

Статус: проверено (by nemos at 26.07.2015 18:00)
Поблагодарили: пока никто не поблагодарил...
Тип торрента: публичный - доступные источники с открытых трекеров: 
Размер: 1,41 GB (занимает 0,32 DVDR, для записи нужно 1 болванка DVDR/RW)
 
 
Похожие темы
Форум Тема Автор Торрент Отв. Посл. сооб.
Зарубежное кино [HDDVDRip / BDRip / WEB-DL / HDTV 1080/720р] Крепись! (Расширенная версия) / Get Hard (Unrated Cut) (Этан Коэн) [2015 г., комедия, BDRip 720p] MVO + Original + Subs (Eng) makkol
13 | 0

1 | 650

15

08.08.2015 05:24


Яндекс.Метрика powered by Sphinx


В Н И М А Н И Е
Сайт не распространяет и не хранит электронные версии произведений, а лишь бесплатно и без коммерческой выгоды (не требуя взамен платы,
SMS и т.д.) предоставляет доступ к создаваемому пользователями каталогу ссылок на торрент-файлы, которые содержат только списки хеш-сумм.
Убедительная просьба с жалобами обращаться напрямую к пользователю, разместившему торрент файл.

Вверх