Loading...
Error

Прогулка по Бангкоку / On a marche sur Bangkok (Оливье Барру) [2014 г., комедия, HDRip] MVO

Статистика раздачи
Размер:  1,37 GB   |    Зарегистрирован:  1 год 4 месяца   |    Скачан:  68 раз
Сидов:  1  |  0 KB/s  ]   Личеров:  0  |  0 KB/s  ]

* - сиды/пиры с внешних источников

   
 
Автор Сообщение

makkol Пол:Муж

25-Июл-2015 23:00

Прогулка по Бангкоку / On a marché sur Bangkok


Год выпуска: 2014
Жанр: комедия
Производство: Франция [Canal+ [fr], Cine, Eskwad, Pathe, TF1, TF1 Films Production, TMC]
Режиссер: Оливье Барру
В ролях: Кад Мерад, Элис Тальони, Питер Койот, Chawanrut Janjittranon, Клод Перрон, Этьен Шико, Мишель Омон, Клер Надо, Себастьян Маркс, Кейт Моран
Сюжет фильма:
Аполлон 11, 21 июля 1969 года человек ступил на Луну. Астронавт Нил Армстронг произнес фразу, ставшую легендарной: "Один маленький шаг для человека, но гигантский скачок для человечества... " Но все ли нам рассказали об этом дне? Серж Ренарт, тележурналист и Наташа Бисон, военный корреспондент, объединяются, чтобы, расследовать это дело. Искать разгадку им предстоит в столице Тайланда...

  • Мировая премьера: 23 августа 2014


Качество видео: HDRip

Продолжительность: 01:33:08
Формат: AVI
Видео: XviD, 720x384 (1.85:1), 24.000 fps, 1899 kbps
Аудио: русский, профессиональный многоголосый закадровый (официальный), AC3 2.0, 48 kHz, 192 kbps

Код:

Общее
Полное имя                               : Progylka.po.Bankoky.2014.P.HDRip.avi
Формат                                   : AVI
Формат/Информация                        : Audio Video Interleave
Размер файла                             : 1,37 Гбайт
Продолжительность                        : 1 ч. 33 м.
Общий поток                              : 2101 Кбит/сек
Программа кодирования                    : VirtualDubMod 1.5.10.2 (build 2540/release)
Библиотека кодирования                   : VirtualDubMod build 2540/release

Видео
Идентификатор                            : 0
Формат                                   : MPEG-4 Visual
Профиль формата                          : Advanced Simple@L5
Параметр BVOP формата                    : 2
Параметр QPel формата                    : Нет
Параметр GMC формата                     : Без точки перехода
Параметр матрицы формата                 : Default (MPEG)
Идентификатор кодека                     : XVID
Идентификатор кодека/Подсказка           : XviD
Продолжительность                        : 1 ч. 33 м.
Битрейт                                  : 1899 Кбит/сек
Ширина                                   : 720 пикселей
Высота                                   : 384 пикселя
Соотношение сторон                       : 1,85:1
Частота кадров                           : 24,000 кадра/сек
Цветовое пространство                    : YUV
Субдискретизация насыщенности            : 4:2:0
Битовая глубина                          : 8 бит
Тип развёртки                            : Прогрессивная
Метод сжатия                             : С потерями
Бит/(Пиксели*Кадры)                      : 0.286
Размер потока                            : 1,24 Гбайт (90%)
Библиотека кодирования                   : XviD 1.2.1 (UTC 2008-12-04)

Аудио
Идентификатор                            : 1
Формат                                   : AC-3
Формат/Информация                        : Audio Coding 3
Расширение режима                        : CM (complete main)
Параметр Endianness формата              : Big
Идентификатор кодека                     : 2000
Продолжительность                        : 1 ч. 33 м.
Вид битрейта                             : Постоянный
Битрейт                                  : 192 Кбит/сек
Каналы                                   : 2 канала
Расположение каналов                     : Front: L R
Частота                                  : 48,0 КГц
Метод сжатия                             : С потерями
Размер потока                            : 128 Мбайт (9%)
Выравнивание                             : Разделение по промежуткам
Продолжительность промежутка             : 42  мс. (1,00 видеокадр)
Время предзагрузки промежутка            : 500  мс.
picpicpicpicpic
Для увеличения картинки щелкните мышкой по превью

Этот торрент недоступен для скачивания без регистрации, однако доступен по публичной magnet-ссылке (источники с публичных трекеров). Перед использованием ссылки прочтите, пожалуйста Пользовательское соглашение, а также как можно дольше оставайтесь на раздаче! Для того, чтобы скачать сам торрент-файл (который видит больше источников), а также для того, чтобы поблагодарить релизера, вам необходимо зарегистрироваться. Если регистрироваться лень - вы можете также попробовать скачать релиз по нашим партнерским ссылкам ниже.

[underverse.su].t56350.torrent
Трекер: Зарегистрирован   [ 25.07.2015 23:00 ]  

Статус: проверено (by nemos at 26.07.2015 18:04)
Поблагодарили: пока никто не поблагодарил...
Тип торрента: публичный - доступные источники с открытых трекеров: 
Размер: 1,37 GB (занимает 0,31 DVDR, для записи нужно 1 болванка DVDR/RW)
 
 
Похожие темы
Форум Тема Автор Торрент Отв. Посл. сооб.
Зарубежное кино [DVDRip, Low-Res HDRip, и т.д.] Прогулка по солнечному свету / Walking on Sunshine (Макс Джива, Дания Пасквини) [2014 г., Мюзикл, Мелодрама, DVDRip-AVC] Dub (RUS, Лицензия) Ведьмочка
0 | 0

0 | 403

3

28.09.2014 09:48

T Зарубежное кино [DVDRip, Low-Res HDRip, и т.д.] Прогулка по солнечному свету / Walking on Sunshine (Макс Джива, Дания Пасквини) [2014 г., Мюзикл, Мелодрама, WEB-DLRip-AVC] Dub (RUS, iTunes Russia) Ведьмочка
2 | 2

0 | 682

6

05.09.2014 17:34

Зарубежное кино [DVDRip, Low-Res HDRip, и т.д.] Прогулка по солнечному свету / Walking on Sunshine (Макс Джива / Max Giwa, Дания Пасквини / Dania Pasquini) [2014 г., мюзикл, мелодрама, HDRip] Dub 90ytr90
1 | 0

0 | 687

11

18.10.2014 08:44

Зарубежное кино [DVDRip, Low-Res HDRip, и т.д.] Прогулка по Миссисипи / Mississippi Grind (Анна Боден, Райан Флек) [2015 г., драма, WEB-DLRip] VO makkol
15 | 1

0 | 772

30

30.09.2015 14:01

Зарубежное кино [DVDRip, Low-Res HDRip, и т.д.] Прогулка по Миссисипи / Mississippi Grind (Анна Боден, Райан Флек) [2015 г., драма, HDRip] DVO makkol
0 | 0

0 | 608

20

22.11.2015 10:05

% Зарубежное кино [DVDRip, Low-Res HDRip, и т.д.] Прогулка по лесам / A Walk in the Woods (Кен Куопис / Ken Kwapis) [2015 г., драма, комедия, приключения, биография, HDRip] DVO (Parovoz Production) + Original (Eng) 90ytr90
92 | 3

0 | 390

14

11.01.2016 18:14

% Зарубежное кино [DVDRip, Low-Res HDRip, и т.д.] Прогулка по лесам / A Walk in the Woods (Кен Куопис / Ken Kwapis) [2015 г., драма, комедия, приключения, биография, HDRip] DVO (Parovoz Production) + Original (Eng) + Sub (Eng) 90ytr90
56 | 1

0 | 456

6

12.01.2016 19:26

Зарубежное кино [DVDRip, Low-Res HDRip, и т.д.] Прогулка по Миссисипи / Mississippi Grind (Анна Боден / Anna Boden, Райан Флек / Ryan Fleck) [2015 г., драма, HDRip] MVO (CCK Media Production & NesTea) 90ytr90
10 | 0

0 | 683

6

17.02.2016 18:09

Зарубежное кино [DVDRip, Low-Res HDRip, и т.д.] Прогулка по Миссисипи / Mississippi Grind (Анна Боден / Anna Boden, Райан Флек / Ryan Fleck) [2015 г., драма, HDRip] MVO (CCK Media Production & NesTea) 90ytr90
1 | 0

0 | 1052

2

18.02.2016 19:50

* Зарубежное кино [DVDRip, Low-Res HDRip, и т.д.] Прогулка по Миссисипи / Mississippi Grind (Анна Боден / Anna Boden, Райан Флек / Ryan Fleck) [2015 г., драма, BDRip-AVC] AVO (Чадов) + Original (Eng) 90ytr90
5 | 0

0 | 298

4

19.02.2016 15:26


Яндекс.Метрика powered by Sphinx


В Н И М А Н И Е
Сайт не распространяет и не хранит электронные версии произведений, а лишь бесплатно и без коммерческой выгоды (не требуя взамен платы,
SMS и т.д.) предоставляет доступ к создаваемому пользователями каталогу ссылок на торрент-файлы, которые содержат только списки хеш-сумм.
Убедительная просьба с жалобами обращаться напрямую к пользователю, разместившему торрент файл.

Вверх