Loading...
Error

Королевские приключения Софии Грейс и Роузи / Sophia Grace & Rosie’s Royal Adventure (Брайан Левант) [2014 г., мюзикл, комедия, приключения, семейный, DVDRip] Dub + Original

Статистика раздачи
Размер:  1,37 GB   |    Зарегистрирован:  1 год 4 месяца   |    Скачан:  14 раз

Полного источника не было: 3 месяца 9 дней

Сидов:  0  |  0 KB/s  ]   Личеров:  0  |  0 KB/s  ]

* - сиды/пиры с внешних источников

   
 
Автор Сообщение

makkol Пол:Муж

25-Июл-2015 13:42

Королевские приключения Софии Грейс и Роузи / Sophia Grace & Rosie’s Royal Adventure


Год выпуска: 2014
Жанр: мюзикл, комедия, приключения, семейный
Производство: США [Film Afrika Worldwide, A Very Good Production Inc]
Режиссер: Брайан Левант
В ролях: София Грейс Браунли, Рози МакКлелланд, Анна Скеллерн, Эмма Пирсон, Алекс МакГрегор, Маргарет Клуни, Эми Луиз Уилсон, Ричард Лотиан
Сюжет фильма:
София Грейс и Рози отправляются в Швейцельванию в качестве специальных корреспондентов, чтобы сделать репортаж о коронации новой королевы. Однако, прибыв на место, они знакомятся с тремя совершенно разными претендентками на трон. Вместе София Грейс и Рози придумывают план, как помочь лучшей принцессе.

  • Мировая премьера: 20 мая 2014


Качество видео: DVDRip

Продолжительность: 01:18:57
Формат: AVI
Видео: XviD, 720x400 (16:9), 23.976 fps, 1957 kbps
Аудио #1: русский, дублированный, AC3 2.0, 48 kHz, 256 kbps
Аудио #2: английский, оригинал, AC3 2.0, 48 kHz, 256 kbps

Код:

Общее
Полное имя                               : Priklu4eniya.Sofii.Grejs.Royzi.2014.P.DVDRip.avi
Формат                                   : AVI
Формат/Информация                        : Audio Video Interleave
Размер файла                             : 1,37 Гбайт
Продолжительность                        : 1 ч. 18 м.
Общий поток                              : 2484 Кбит/сек
Программа кодирования                    : VirtualDubMod 1.5.10.2 (build 2540/release)
Библиотека кодирования                   : VirtualDubMod build 2540/release

Видео
Идентификатор                            : 0
Формат                                   : MPEG-4 Visual
Профиль формата                          : Advanced Simple@L5
Параметр BVOP формата                    : 2
Параметр QPel формата                    : Нет
Параметр GMC формата                     : Без точки перехода
Параметр матрицы формата                 : Default (MPEG)
Идентификатор кодека                     : XVID
Идентификатор кодека/Подсказка           : XviD
Продолжительность                        : 1 ч. 18 м.
Битрейт                                  : 1957 Кбит/сек
Ширина                                   : 720 пикселей
Высота                                   : 400 пикселей
Соотношение сторон                       : 16:9
Частота кадров                           : 23,976 кадра/сек
Цветовое пространство                    : YUV
Субдискретизация насыщенности            : 4:2:0
Битовая глубина                          : 8 бит
Тип развёртки                            : Прогрессивная
Метод сжатия                             : С потерями
Бит/(Пиксели*Кадры)                      : 0.270
Размер потока                            : 1,03 Гбайт (75%)
Библиотека кодирования                   : XviD 1.2.1 (UTC 2008-12-04)

Аудио #1
Идентификатор                            : 1
Формат                                   : AC-3
Формат/Информация                        : Audio Coding 3
Расширение режима                        : CM (complete main)
Параметр Endianness формата              : Big
Идентификатор кодека                     : 2000
Продолжительность                        : 1 ч. 18 м.
Вид битрейта                             : Постоянный
Битрейт                                  : 256 Кбит/сек
Каналы                                   : 2 канала
Расположение каналов                     : Front: L R
Частота                                  : 48,0 КГц
Битовая глубина                          : 16 бит
Метод сжатия                             : С потерями
Размер потока                            : 145 Мбайт (10%)
Выравнивание                             : Разделение по промежуткам

Аудио #2
Идентификатор                            : 2
Формат                                   : AC-3
Формат/Информация                        : Audio Coding 3
Расширение режима                        : CM (complete main)
Параметр Endianness формата              : Big
Идентификатор кодека                     : 2000
Продолжительность                        : 1 ч. 18 м.
Вид битрейта                             : Постоянный
Битрейт                                  : 256 Кбит/сек
Каналы                                   : 2 канала
Расположение каналов                     : Front: L R
Частота                                  : 48,0 КГц
Битовая глубина                          : 16 бит
Метод сжатия                             : С потерями
Размер потока                            : 145 Мбайт (10%)
Выравнивание                             : Разделение по промежуткам
picpicpicpicpic
Для увеличения картинки щелкните мышкой по превью

Этот торрент недоступен для скачивания без регистрации, однако доступен по публичной magnet-ссылке (источники с публичных трекеров). Перед использованием ссылки прочтите, пожалуйста Пользовательское соглашение, а также как можно дольше оставайтесь на раздаче! Для того, чтобы скачать сам торрент-файл (который видит больше источников), а также для того, чтобы поблагодарить релизера, вам необходимо зарегистрироваться. Если регистрироваться лень - вы можете также попробовать скачать релиз по нашим партнерским ссылкам ниже.

[underverse.su].t56329.torrent
Трекер: Зарегистрирован   [ 25.07.2015 13:42 ]  

Статус: проверено (by Паукан at 29.07.2015 09:42)
Поблагодарили: пока никто не поблагодарил...
Тип торрента: публичный - доступные источники с открытых трекеров: 
Размер: 1,37 GB (занимает 0,31 DVDR, для записи нужно 1 болванка DVDR/RW)
 
 
Похожие темы
Форум Тема Автор Торрент Отв. Посл. сооб.
Зарубежное кино [DVDRip, Low-Res HDRip, и т.д.] Королевский роман / A Royal Affair (Николай Арсел) [2012 г., драма, мелодрама, история, HDRip] MVO 90ytr90
0 | 0

0 | 560

27

26.12.2012 12:07

Релизы Королевский детектив 2: Королева теней. Коллекционное издание / Royal Detective 2: Queen of Shadows Collector’s Edition [2015 г., Квест, Поиск Предметов] RUS [P] Станислав Карбанович
24 | 0

0 | 475

15

23.05.2015 11:00

Логические и Пазлы Королевский гамбит / Kings Gambit [2011 г., Logic] RUS tobus
1 | 0

0 | 641

2

04.11.2011 23:11

Фантастика, фэнтези Королевский Дмитрий - Кровавая жара (2013) [2013 г., фантастика, zombiehorror, MP3, 128 kbps] RUS Паукан
2 | 0

0 | 367

9

23.07.2015 06:54

Фантастика, фэнтези Королевский Дмитрий - Ледяные Трущобы (2013) [2015 г., фантастика, постапокалипсис, MP3, 256 kbps] RUS Паукан
2 | 0

0 | 494

11

23.07.2015 06:56


Яндекс.Метрика powered by Sphinx


В Н И М А Н И Е
Сайт не распространяет и не хранит электронные версии произведений, а лишь бесплатно и без коммерческой выгоды (не требуя взамен платы,
SMS и т.д.) предоставляет доступ к создаваемому пользователями каталогу ссылок на торрент-файлы, которые содержат только списки хеш-сумм.
Убедительная просьба с жалобами обращаться напрямую к пользователю, разместившему торрент файл.

Вверх