Loading...
Error

Сирота / The Orphan / Friday the 13th: The Orphan (Джон Баллард) [1979 г., ужасы, VHS-Rip] AVO + Original

Статистика раздачи
Размер:  1,16 GB   |    Зарегистрирован:  1 год 4 месяца   |    Скачан:  6 раз

Полного источника не было: 2 часа 42 минуты

Сидов:  0  |  0 KB/s  ]   Личеров:  0  |  0 KB/s  ]

* - сиды/пиры с внешних источников

   
 
Автор Сообщение

makkol Пол:Муж

25-Июл-2015 12:29

Сирота / The Orphan / Friday the 13th: The Orphan
«У тебя свидание... со смертью!»


Год выпуска: 1979
Жанр: ужасы
Страна: США
Режиссер: Джон Баллард
В ролях: Пегги Фьюри, Марк Оуэнс, Afolabi Ajayi, Стэнли Черч, Дэвид Формен, Джейн Хаус, Мэлаки МакКорт, Джоэнна Майлз, Элинор Стюарт, Донн Уайт
Сюжет фильма:
10-летний Дэвид, у которого с психикой и так не все в порядке, после странной смерти одновременно и матери, и отца остается сиротой в богатом особняке своих родителей на попечении своей тети Марты. Тетя не отличается мягким характером. Она жестока и бесчувственна по отношению к племяннику и к тому, что мальчик в одночасье лишился всей родительской теплоты, так необходимой ему в этом возрасте. Настоящий Бог отвернулся от Дэвида, и он придумывает себе другого. Это чучело из мощей ужасной обезьяны по имени Чарли, которую привез отец из одной из своих частых поездок по Африке…

Качество видео: VHS-Rip

Продолжительность: 01:24:32
Формат: MKV
Видео: MPEG-4 AVC, 698x474@620x474 (4:3), 23.976 fps, 1476 kbps
Аудио #1: русский, авторский одноголосый закадровый (Вячеслав Котов), AC3 2.0, 48 kHz, 192 kbps
Аудио #2: английский, оригинал, AC3 2.0, 48 kHz, 256 kbps

Код:

Общее
Уникальный идентификатор                 : 184402232279555711369969097529077248485 (0x8ABA93FE17DC960FBF00D59DEDDFB1E5)
Полное имя                               : The.Orphan.1979.VHSRip.mkv
Формат                                   : Matroska
Версия формата                           : Version 2
Размер файла                             : 1,16 Гбайт
Продолжительность                        : 1 ч. 24 м.
Общий поток                              : 1963 Кбит/сек
Дата кодирования                         : UTC 2015-07-25 03:36:30
Программа кодирования                    : mkvmerge v5.7.0 ('The Whirlwind') built on Jul  8 2012 20:08:51
Библиотека кодирования                   : libebml v1.2.3 + libmatroska v1.3.0

Видео
Идентификатор                            : 1
Формат                                   : AVC
Формат/Информация                        : Advanced Video Codec
Профиль формата                          : High@L3.1
Параметр CABAC формата                   : Да
Параметр ReFrames формата                : 9 кадров
Идентификатор кодека                     : V_MPEG4/ISO/AVC
Продолжительность                        : 1 ч. 24 м.
Битрейт                                  : 1476 Кбит/сек
Ширина                                   : 698 пикселей
Высота                                   : 474 пикселя
Соотношение сторон                       : 4:3
Соотношение сторон в оригинале           : 4:3
Режим частоты кадров                     : Постоянный
Частота кадров                           : 23,976 кадра/сек
Цветовое пространство                    : YUV
Субдискретизация насыщенности            : 4:2:0
Битовая глубина                          : 8 бит
Тип развёртки                            : Прогрессивная
Бит/(Пиксели*Кадры)                      : 0.186
Размер потока                            : 892 Мбайт (75%)
Библиотека кодирования                   : x264 core 142 r2389 956c8d8
Настройки программы                      : cabac=1 / ref=9 / deblock=1:-2:-2 / analyse=0x3:0x133 / me=umh / subme=9 / psy=1 / psy_rd=1.00:0.00 / mixed_ref=1 / me_range=24 / chroma_me=1 / trellis=2 / 8x8dct=1 / cqm=0 / deadzone=21,11 / fast_pskip=0 / chroma_qp_offset=-2 / threads=6 / lookahead_threads=1 / sliced_threads=0 / nr=0 / decimate=1 / interlaced=0 / bluray_compat=0 / constrained_intra=0 / bframes=6 / b_pyramid=2 / b_adapt=2 / b_bias=0 / direct=3 / weightb=1 / open_gop=0 / weightp=2 / keyint=240 / keyint_min=24 / scenecut=40 / intra_refresh=0 / rc_lookahead=50 / rc=crf / mbtree=1 / crf=20.0 / qcomp=0.60 / qpmin=0 / qpmax=69 / qpstep=4 / ip_ratio=1.40 / aq=1:1.20
Язык                                     : English
Default                                  : Да
Forced                                   : Нет
Цветовой диапазон                        : Limited
Основные цвета                           : BT.601 NTSC
Характеристики трансфера                 : BT.709
Коэффициенты матрицы                     : BT.601

Аудио #1
Идентификатор                            : 2
Формат                                   : AC-3
Формат/Информация                        : Audio Coding 3
Расширение режима                        : CM (complete main)
Параметр Endianness формата              : Big
Идентификатор кодека                     : A_AC3
Продолжительность                        : 1 ч. 24 м.
Вид битрейта                             : Постоянный
Битрейт                                  : 192 Кбит/сек
Каналы                                   : 2 канала
Расположение каналов                     : Front: L R
Частота                                  : 48,0 КГц
Битовая глубина                          : 16 бит
Метод сжатия                             : С потерями
Размер потока                            : 116 Мбайт (10%)
Язык                                     : Russian
Default                                  : Да
Forced                                   : Нет

Аудио #2
Идентификатор                            : 3
Формат                                   : AC-3
Формат/Информация                        : Audio Coding 3
Расширение режима                        : CM (complete main)
Параметр Endianness формата              : Big
Идентификатор кодека                     : A_AC3
Продолжительность                        : 1 ч. 24 м.
Вид битрейта                             : Постоянный
Битрейт                                  : 256 Кбит/сек
Каналы                                   : 2 канала
Расположение каналов                     : Front: L R
Частота                                  : 48,0 КГц
Битовая глубина                          : 16 бит
Метод сжатия                             : С потерями
Размер потока                            : 155 Мбайт (13%)
Язык                                     : English
Default                                  : Нет
Forced                                   : Нет

Меню
00:00:00.000                             : en:Chapter 1
00:10:09.692                             : en:Chapter 2
00:19:50.272                             : en:Chapter 3
00:29:59.881                             : en:Chapter 4
00:40:09.490                             : en:Chapter 5
00:49:50.070                             : en:Chapter 6
00:59:59.679                             : en:Chapter 7
01:10:09.246                             : en:Chapter 8
01:20:18.855                             : en:Chapter 9
picpicpicpicpic
Для увеличения картинки щелкните мышкой по превью

Этот торрент недоступен для скачивания без регистрации, однако доступен по публичной magnet-ссылке (источники с публичных трекеров). Перед использованием ссылки прочтите, пожалуйста Пользовательское соглашение, а также как можно дольше оставайтесь на раздаче! Для того, чтобы скачать сам торрент-файл (который видит больше источников), а также для того, чтобы поблагодарить релизера, вам необходимо зарегистрироваться. Если регистрироваться лень - вы можете также попробовать скачать релиз по нашим партнерским ссылкам ниже.

[underverse.su].t56327.torrent
Трекер: Зарегистрирован   [ 25.07.2015 12:29 ]  

Статус: проверено (by Паукан at 29.07.2015 09:42)
Поблагодарили: пока никто не поблагодарил...
Тип торрента: публичный - доступные источники с открытых трекеров: 
Размер: 1,16 GB (занимает 0,26 DVDR, для записи нужно 1 болванка DVDR/RW)
 
 

Яндекс.Метрика powered by Sphinx


В Н И М А Н И Е
Сайт не распространяет и не хранит электронные версии произведений, а лишь бесплатно и без коммерческой выгоды (не требуя взамен платы,
SMS и т.д.) предоставляет доступ к создаваемому пользователями каталогу ссылок на торрент-файлы, которые содержат только списки хеш-сумм.
Убедительная просьба с жалобами обращаться напрямую к пользователю, разместившему торрент файл.

Вверх