Loading...
Error

Госпожа Бовари / Madame Bovary (Софи Бартез) [2014 г., драма, HDRip] VO + Original

Статистика раздачи
Размер:  2,04 GB   |    Зарегистрирован:  1 год 4 месяца   |    Скачан:  18 раз

Полного источника не было: 2 месяца 28 дней

Сидов:  0  |  0 KB/s  ]   Личеров:  0  |  0 KB/s  ]

* - сиды/пиры с внешних источников

   
 
Автор Сообщение

makkol Пол:Муж

24-Июл-2015 23:21

Госпожа Бовари / Madame Bovary


Год выпуска: 2014
Жанр: драма
Производство: Германия , Бельгия , США [A Company Filmproduktionsgesellschaft, Aden Film, Aleph Motion Pictures]
Режиссер: Софи Бартез
В ролях: Эзра Миллер, Миа Васиковска, Пол Джаматти, Рис Иванс, Логан Маршалл-Грин, Лаура Кармайкл, Генри Ллойд-Хьюз, Морфидд Кларк, Оливье Гурме
Сюжет фильма:
Главная героиня — Эмма, молодая жена провинциального врача, скучающая в браке. Лекарством от скуки становятся любовники и дорогие наряды.

  • Мировая премьера: 30 августа 2014


Качество видео: HDRip

Продолжительность: 01:58:32
Формат: AVI
Видео: XviD, 720x304 (2.35:1), 23.976 fps, 1864 kbps
Аудио #1: русский, любительский одноголосый закадровый (Carl Gauß), AC3 2.0, 48 kHz, 192 kbps
Аудио #2: английский, оригинал, AC3 5.1, 48 kHz, 384 kbps

Код:

Общее
Полное имя                               : Madame.Bovary.2014.L1.HDRip.avi
Формат                                   : AVI
Формат/Информация                        : Audio Video Interleave
Размер файла                             : 2,04 Гбайт
Продолжительность                        : 1 ч. 58 м.
Общий поток                              : 2459 Кбит/сек
Программа кодирования                    : VirtualDubMod 1.5.10.2 (build 2540/release)
Библиотека кодирования                   : VirtualDubMod build 2540/release

Видео
Идентификатор                            : 0
Формат                                   : MPEG-4 Visual
Профиль формата                          : Advanced Simple@L5
Параметр BVOP формата                    : 2
Параметр QPel формата                    : Нет
Параметр GMC формата                     : Без точки перехода
Параметр матрицы формата                 : Default (MPEG)
Идентификатор кодека                     : XVID
Идентификатор кодека/Подсказка           : XviD
Продолжительность                        : 1 ч. 58 м.
Битрейт                                  : 1864 Кбит/сек
Ширина                                   : 720 пикселей
Высота                                   : 304 пикселя
Соотношение сторон                       : 2,35:1
Частота кадров                           : 23,976 кадра/сек
Цветовое пространство                    : YUV
Субдискретизация насыщенности            : 4:2:0
Битовая глубина                          : 8 бит
Тип развёртки                            : Прогрессивная
Метод сжатия                             : С потерями
Бит/(Пиксели*Кадры)                      : 0.338
Размер потока                            : 1,47 Гбайт (72%)
Библиотека кодирования                   : XviD 1.2.1 (UTC 2008-12-04)

Аудио #1
Идентификатор                            : 1
Формат                                   : AC-3
Формат/Информация                        : Audio Coding 3
Расширение режима                        : CM (complete main)
Параметр Endianness формата              : Big
Идентификатор кодека                     : 2000
Продолжительность                        : 1 ч. 58 м.
Вид битрейта                             : Постоянный
Битрейт                                  : 192 Кбит/сек
Каналы                                   : 2 канала
Расположение каналов                     : Front: L R
Частота                                  : 48,0 КГц
Битовая глубина                          : 16 бит
Метод сжатия                             : С потерями
Размер потока                            : 163 Мбайт (8%)
Выравнивание                             : Разделение по промежуткам

Аудио #2
Идентификатор                            : 2
Формат                                   : AC-3
Формат/Информация                        : Audio Coding 3
Расширение режима                        : CM (complete main)
Параметр Endianness формата              : Big
Идентификатор кодека                     : 2000
Продолжительность                        : 1 ч. 58 м.
Вид битрейта                             : Постоянный
Битрейт                                  : 384 Кбит/сек
Каналы                                   : 6 каналов
Расположение каналов                     : Front: L C R, Side: L R, LFE
Частота                                  : 48,0 КГц
Битовая глубина                          : 16 бит
Метод сжатия                             : С потерями
Размер потока                            : 326 Мбайт (16%)
Выравнивание                             : Разделение по промежуткам
picpicpicpicpic
Для увеличения картинки щелкните мышкой по превью

Этот торрент недоступен для скачивания без регистрации, однако доступен по публичной magnet-ссылке (источники с публичных трекеров). Перед использованием ссылки прочтите, пожалуйста Пользовательское соглашение, а также как можно дольше оставайтесь на раздаче! Для того, чтобы скачать сам торрент-файл (который видит больше источников), а также для того, чтобы поблагодарить релизера, вам необходимо зарегистрироваться. Если регистрироваться лень - вы можете также попробовать скачать релиз по нашим партнерским ссылкам ниже.

[underverse.su].t56319.torrent
Трекер: Зарегистрирован   [ 24.07.2015 23:21 ]  

Статус: проверено (by Паукан at 29.07.2015 09:42)
Поблагодарили: 1 человек
Тип торрента: публичный - доступные источники с открытых трекеров: 
Размер: 2,04 GB (занимает 0,47 DVDR, для записи нужно 1 болванка DVDR/RW)
 
 
Похожие темы
Форум Тема Автор Торрент Отв. Посл. сооб.
Зарубежное кино [DVDRip, Low-Res HDRip, и т.д.] Госпожа Бовари / Madame Bovary (Софи Бартез) [2014 г., драма, WEB-DLRip] VO makkol
16 | 0

0 | 403

14

25.06.2015 15:15

Зарубежное кино [HDDVDRip / BDRip / WEB-DL / HDTV 1080/720р] Госпожа Бовари / Madame Bovary (Софи Бартез) [2014 г., драма, WEB-DL 720p] VO + Original makkol
10 | 0

0 | 273

8

25.06.2015 15:27

Зарубежное кино [HDDVDRip / BDRip / WEB-DL / HDTV 1080/720р] Госпожа Бовари / Madame Bovary (Софи Бартез) [2014 г., драма, BDRip 1080p] VO + Original + Subs (Eng) makkol
1 | 0

0 | 430

7

24.07.2015 23:34


Яндекс.Метрика powered by Sphinx


В Н И М А Н И Е
Сайт не распространяет и не хранит электронные версии произведений, а лишь бесплатно и без коммерческой выгоды (не требуя взамен платы,
SMS и т.д.) предоставляет доступ к создаваемому пользователями каталогу ссылок на торрент-файлы, которые содержат только списки хеш-сумм.
Убедительная просьба с жалобами обращаться напрямую к пользователю, разместившему торрент файл.

Вверх