Loading...
Error

Заповедник / Preservation (Кристофер Денэм) [2014 г., ужасы, триллер, HDRip] DVO

Статистика раздачи
Размер:  1,46 GB   |    Зарегистрирован:  1 год 4 месяца   |    Скачан:  30 раз

Полного источника не было: 1 год

Сидов:  0  |  0 KB/s  ]   Личеров:  0  |  0 KB/s  ]

* - сиды/пиры с внешних источников

   
 
Автор Сообщение

makkol Пол:Муж

24-Июл-2015 13:33

Заповедник / Preservation
«Единственный, кто убивает ради забавы - это человек»


Год выпуска: 2014
Жанр: ужасы, триллер
Производство: США [Present Pictures]
Режиссер: Кристофер Денэм
В ролях: Пабло Шрайбер, Аарон Стэтон, Ренн Шмидт, Ник Сашо, Майкл Чакон
Сюжет фильма:
Два брата, Шон и Майк и жена Майка, отправляются поохотиться, чтоб отвлечься от домашних проблем. Не обращая внимания на запрещающие знаки, они проникают в закрытый заповедник и их проблемы только начинаются.

  • Мировая премьера: 17 апреля 2014


Перевод: Антон Кедров
Озвучивание: Ариса Лебедева и Андрей Жариков

Качество видео: HDRip

Продолжительность: 01:28:17
Формат: AVI
Видео: XviD, 720x304 (2.35:1), 23.976 fps, 1974 kbps
Аудио: русский, двухголосый закадровый (HamsterStudio), AC3 5.1, 48 kHz, 384 kbps

Код:

Общее
Полное имя                               : 3ap0BedH1K.2014.L2.HDRip.1.46Gb.avi
Формат                                   : AVI
Формат/Информация                        : Audio Video Interleave
Размер файла                             : 1,46 Гбайт
Продолжительность                        : 1 ч. 28 м.
Общий поток                              : 2368 Кбит/сек
Программа кодирования                    : VirtualDubMod 1.5.10.2 (build 2540/release)
Библиотека кодирования                   : VirtualDubMod build 2540/release

Видео
Идентификатор                            : 0
Формат                                   : MPEG-4 Visual
Профиль формата                          : Advanced Simple@L5
Параметр BVOP формата                    : 2
Параметр QPel формата                    : Нет
Параметр GMC формата                     : Без точки перехода
Параметр матрицы формата                 : Выборочная
Идентификатор кодека                     : XVID
Идентификатор кодека/Подсказка           : XviD
Продолжительность                        : 1 ч. 28 м.
Битрейт                                  : 1974 Кбит/сек
Ширина                                   : 720 пикселей
Высота                                   : 304 пикселя
Соотношение сторон                       : 2,35:1
Частота кадров                           : 23,976 кадра/сек
Цветовое пространство                    : YUV
Субдискретизация насыщенности            : 4:2:0
Битовая глубина                          : 8 бит
Тип развёртки                            : Прогрессивная
Метод сжатия                             : С потерями
Бит/(Пиксели*Кадры)                      : 0.358
Размер потока                            : 1,16 Гбайт (79%)
Библиотека кодирования                   : XviD 1.2.1 (UTC 2008-12-04)

Аудио
Идентификатор                            : 1
Формат                                   : AC-3
Формат/Информация                        : Audio Coding 3
Расширение режима                        : CM (complete main)
Параметр Endianness формата              : Big
Идентификатор кодека                     : 2000
Продолжительность                        : 1 ч. 28 м.
Вид битрейта                             : Постоянный
Битрейт                                  : 384 Кбит/сек
Каналы                                   : 6 каналов
Расположение каналов                     : Front: L C R, Side: L R, LFE
Частота                                  : 48,0 КГц
Битовая глубина                          : 16 бит
Метод сжатия                             : С потерями
Размер потока                            : 242 Мбайт (16%)
Выравнивание                             : Разделение по промежуткам
picpicpicpicpic
Для увеличения картинки щелкните мышкой по превью

Этот торрент недоступен для скачивания без регистрации, однако доступен по публичной magnet-ссылке (источники с публичных трекеров). Перед использованием ссылки прочтите, пожалуйста Пользовательское соглашение, а также как можно дольше оставайтесь на раздаче! Для того, чтобы скачать сам торрент-файл (который видит больше источников), а также для того, чтобы поблагодарить релизера, вам необходимо зарегистрироваться. Если регистрироваться лень - вы можете также попробовать скачать релиз по нашим партнерским ссылкам ниже.

[underverse.su].t56314.torrent
Трекер: Зарегистрирован   [ 24.07.2015 13:33 ]  

Статус: проверено (by Паукан at 29.07.2015 09:43)
Поблагодарили: пока никто не поблагодарил...
Тип торрента: публичный - доступные источники с открытых трекеров: 
Размер: 1,46 GB (занимает 0,33 DVDR, для записи нужно 1 болванка DVDR/RW)
 
 
Похожие темы
Форум Тема Автор Торрент Отв. Посл. сооб.
Зарубежное кино [DVDRip, Low-Res HDRip, и т.д.] Заповедник / Preservation (Кристофер Денэм) [2014 г., ужасы, триллер, WEB-DLRip] VO [xixidok] + Original Паукан
44 | 0

0 | 340

14

12.01.2015 14:20

Зарубежное кино [DVDRip, Low-Res HDRip, и т.д.] Заповедник / Preservation (Кристофер Денэм) [2014 г., ужасы, триллер, WEB-DLRip] MVO [xixidok] Паукан
11 | 3

0 | 377

12

12.01.2015 14:22


Яндекс.Метрика powered by Sphinx


В Н И М А Н И Е
Сайт не распространяет и не хранит электронные версии произведений, а лишь бесплатно и без коммерческой выгоды (не требуя взамен платы,
SMS и т.д.) предоставляет доступ к создаваемому пользователями каталогу ссылок на торрент-файлы, которые содержат только списки хеш-сумм.
Убедительная просьба с жалобами обращаться напрямую к пользователю, разместившему торрент файл.

Вверх