Loading...
Error

Дивергент, глава 2: Инсургент / Insurgent (Роберт Швентке) [2015 г., фантастика, триллер, приключения, HDRip] Dub (Line) + Original

Статистика раздачи
Размер:  2,05 GB   |    Зарегистрирован:  1 год 4 месяца   |    Скачан:  99 раз
Сидов:  2  |  127 KB/s  ]   Личеров:  0  |  0 KB/s  ]

* - сиды/пиры с внешних источников

   
 
Автор Сообщение

makkol Пол:Муж

23-Июл-2015 14:45

Дивергент, глава 2: Инсургент / Insurgent
«В этом мире пора что-то менять»


Год выпуска: 2015
Жанр: фантастика, триллер, приключения
Производство: США [Red Wagon Productions, Summit Entertainment]
Режиссер: Роберт Швентке
В ролях: Шейлин Вудли, Тео Джеймс, Кейт Уинслет, Джай Кортни, Энсел Элгорт, Майлз Теллер, Зои Кравиц, Мекхай Файфер, Наоми Уоттс, Октавия Спенсер
Сюжет фильма:
В новой главе антиутопии об обществе, где все расставлено по полочкам, а любая индивидуальность подлежит искоренению, Трис должна найти способ борьбы со страшной системой, уничтожающей ее близких. Кто из них на очереди? Она узнает все больше страшных подробностей, стоящих за кажущимся порядком, и уже не может не видеть, что в ее мире пора что-то менять. Но главное в этой борьбе — справиться с расколом, который враг порождает в ее собственной душе.

  • Мировая премьера: 11 марта 2015
  • Российская премьера: 19 марта 2015


Качество видео: HDRip

Продолжительность: 01:59:00
Формат: AVI
Видео: XviD, 720x304 (2.35:1), 23.976 fps, 1813 kbps
Аудио #1: русский, дублированный (чистый звук), AC3 2.0, 48 kHz, 256 kbps
Аудио #2: английский, оригинал, AC3 5.1, 48 kHz, 384 kbps

Код:

Общее
Полное имя                               : 1HCuPgeHt.2015.D.HDRip.2100Mb.avi
Формат                                   : AVI
Формат/Информация                        : Audio Video Interleave
Размер файла                             : 2,05 Гбайт
Продолжительность                        : 1 ч. 59 м.
Общий поток                              : 2471 Кбит/сек
Программа кодирования                    : VirtualDubMod 1.5.10.2 (build 2540/release)
Библиотека кодирования                   : VirtualDubMod build 2540/release

Видео
Идентификатор                            : 0
Формат                                   : MPEG-4 Visual
Профиль формата                          : Advanced Simple@L5
Параметр BVOP формата                    : 2
Параметр QPel формата                    : Нет
Параметр GMC формата                     : Без точки перехода
Параметр матрицы формата                 : Default (MPEG)
Идентификатор кодека                     : XVID
Идентификатор кодека/Подсказка           : XviD
Продолжительность                        : 1 ч. 59 м.
Битрейт                                  : 1813 Кбит/сек
Ширина                                   : 720 пикселей
Высота                                   : 304 пикселя
Соотношение сторон                       : 2,35:1
Частота кадров                           : 23,976 кадра/сек
Цветовое пространство                    : YUV
Субдискретизация насыщенности            : 4:2:0
Битовая глубина                          : 8 бит
Тип развёртки                            : Прогрессивная
Метод сжатия                             : С потерями
Бит/(Пиксели*Кадры)                      : 0.328
Размер потока                            : 1,43 Гбайт (70%)
Библиотека кодирования                   : XviD 1.2.1 (UTC 2008-12-04)

Аудио #1
Идентификатор                            : 1
Формат                                   : AC-3
Формат/Информация                        : Audio Coding 3
Расширение режима                        : CM (complete main)
Параметр Endianness формата              : Big
Идентификатор кодека                     : 2000
Продолжительность                        : 1 ч. 58 м.
Вид битрейта                             : Постоянный
Битрейт                                  : 256 Кбит/сек
Каналы                                   : 2 канала
Расположение каналов                     : Front: L R
Частота                                  : 48,0 КГц
Битовая глубина                          : 16 бит
Метод сжатия                             : С потерями
Размер потока                            : 218 Мбайт (10%)
Выравнивание                             : Разделение по промежуткам

Аудио #2
Идентификатор                            : 2
Формат                                   : AC-3
Формат/Информация                        : Audio Coding 3
Расширение режима                        : CM (complete main)
Параметр Endianness формата              : Big
Идентификатор кодека                     : 2000
Продолжительность                        : 1 ч. 59 м.
Вид битрейта                             : Постоянный
Битрейт                                  : 384 Кбит/сек
Каналы                                   : 6 каналов
Расположение каналов                     : Front: L C R, Side: L R, LFE
Частота                                  : 48,0 КГц
Битовая глубина                          : 16 бит
Метод сжатия                             : С потерями
Размер потока                            : 327 Мбайт (16%)
Выравнивание                             : Разделение по промежуткам
picpicpicpicpic
Для увеличения картинки щелкните мышкой по превью

Этот торрент недоступен для скачивания без регистрации, однако доступен по публичной magnet-ссылке (источники с публичных трекеров). Перед использованием ссылки прочтите, пожалуйста Пользовательское соглашение, а также как можно дольше оставайтесь на раздаче! Для того, чтобы скачать сам торрент-файл (который видит больше источников), а также для того, чтобы поблагодарить релизера, вам необходимо зарегистрироваться. Если регистрироваться лень - вы можете также попробовать скачать релиз по нашим партнерским ссылкам ниже.

[underverse.su].t56273.torrent
Трекер: Зарегистрирован   [ 23.07.2015 14:45 ]  

Статус: проверено (by nemos at 23.07.2015 19:39)
Поблагодарили: 6 человек
Тип торрента: публичный - доступные источники с открытых трекеров: 
Размер: 2,05 GB (занимает 0,47 DVDR, для записи нужно 1 болванка DVDR/RW)
 
 
Похожие темы
Форум Тема Автор Торрент Отв. Посл. сооб.
Зарубежное кино [DVDRip, Low-Res HDRip, и т.д.] Дивергент, глава 3: За стеной / Allegiant (Роберт Швентке / Robert Schwentke) [2016 г., фантастика, боевик, приключения, BDRip-AVC] Dub + Original (Eng) + Sub (Eng) 90ytr90
56 | 1

0 | 533

4

13.11.2016 17:03

Зарубежное кино [DVDRip, Low-Res HDRip, и т.д.] Дивергент, глава 3: За стеной / Allegiant (Роберт Швентке / Robert Schwentke) [2016 г., фантастика, боевик, приключения, HDRip] Dub (Централ Партнершип) 90ytr90
316 | 5

0 | 490

3

13.11.2016 15:32

Зарубежное кино [DVDRip, Low-Res HDRip, и т.д.] Дивергент, глава 2: Инсургент / Insurgent (Роберт Швентке) [2015 г., фантастика, триллер, приключения, HDTVRip] Dub IlyaSaint
664 | 7

4 | 2559

309

07.08.2015 23:05

T Зарубежное кино [DVDRip, Low-Res HDRip, и т.д.] Дивергент, глава 3: За стеной / Allegiant (Роберт Швентке) [2016 г., фантастика, боевик, WEB-DLRip] Dub (iTunes) makkol
230 | 1

0 | 1298

56

16.06.2016 22:23

Зарубежное кино [DVDRip, Low-Res HDRip, и т.д.] Дивергент, глава 3: За стеной / Allegiant (Роберт Швентке / Robert Schwentke) [2016 г., фантастика, боевик, приключения, HDRip] Dub 90ytr90
540 | 9

0 | 484

29

04.07.2016 20:05

Зарубежное кино [HDDVDRip / BDRip / WEB-DL / HDTV 1080/720р] Дивергент, глава 3: За стеной / Allegiant (Роберт Швентке / Robert Schwentke) [2016 г., фантастика, боевик, приключения, BDRip 1080p] Dub (Централ Партнершип) + Original (Eng) + Sub (Eng) 90ytr90
32 | 3

0 | 464

2

13.11.2016 18:02

Зарубежное кино [HDDVDRip / BDRip / WEB-DL / HDTV 1080/720р] Дивергент, глава 3: За стеной / Allegiant (Роберт Швентке / Robert Schwentke) [2016 г., фантастика, боевик, приключения, BDRip 1080p] Dub (Централ Партнершип) + Original (Eng) + Sub (Eng) 90ytr90
95 | 6

0 | 472

1

13.11.2016 17:55

Зарубежное кино [HDDVDRip / BDRip / WEB-DL / HDTV 1080/720р] Дивергент, глава 3: За стеной / Allegiant (Роберт Швентке / Robert Schwentke) [2016 г., фантастика, боевик, приключения, BDRip 720p] Dub (Централ Партнершип) + Original (Eng) + Sub (Eng) 90ytr90
18 | 0

0 | 467

3

13.11.2016 17:46

Зарубежное кино [HDDVDRip / BDRip / WEB-DL / HDTV 1080/720р] Дивергент, глава 3: За стеной / Allegiant (Роберт Швентке / Robert Schwentke) [2016 г., фантастика, боевик, приключения, BDRip 720p] Dub (Централ Партнершип) + Original (Eng) + Sub (Eng) 90ytr90
39 | 1

0 | 460

3

13.11.2016 16:21

Зарубежное кино [HDDVDRip / BDRip / WEB-DL / HDTV 1080/720р] Дивергент, глава 2: Инсургент / Insurgent (Роберт Швентке) [2015 г., Фантастика, боевик, мелодрама, приключения, экранизация, HDTVRip 1080p] Dub (чистый звук) + Original romeoexpert
2 | 0

0 | 1132

94

17.07.2015 10:09


Яндекс.Метрика powered by Sphinx


В Н И М А Н И Е
Сайт не распространяет и не хранит электронные версии произведений, а лишь бесплатно и без коммерческой выгоды (не требуя взамен платы,
SMS и т.д.) предоставляет доступ к создаваемому пользователями каталогу ссылок на торрент-файлы, которые содержат только списки хеш-сумм.
Убедительная просьба с жалобами обращаться напрямую к пользователю, разместившему торрент файл.

Вверх