Loading...
Error

Полтергейст / Неприглашенные / The Uninvited / Victim of the Haunt (Ларри Шоу) [1996 г., ужасы, триллер, DVDRip] VO + Original

Статистика раздачи
Размер:  1,3 GB   |    Зарегистрирован:  1 год 4 месяца   |    Скачан:  3 раза

Полного источника не было: 3 часа

Сидов:  0  |  0 KB/s  ]   Личеров:  0  |  0 KB/s  ]

* - сиды/пиры с внешних источников

   
 
Автор Сообщение

makkol Пол:Муж

23-Июл-2015 12:20

Полтергейст / Неприглашенные / The Uninvited / Victim of the Haunt


Год выпуска: 1996
Жанр: ужасы, триллер
Страна: США
Режиссер: Ларри Шоу
В ролях: Шэрон Лоуренс, Бо Бриджес, Ширли Найт, Алекс Д. Линц, Лоуренс Прессман, Эмили Бриджес, Кэтлин Ллойд, Джеймс Пикенс мл., Лесли Вудс, Лорен Боулз
Сюжет фильма:
Когда психоаналитик предсказала Патриции, что ее сыну угрожает опасность, женщина пропустила ее слова мимо ушей. Однажды она слышит дикие крики — жуткая картина — ее сын захлебывается в ванне, а маленькая дочь стоит рядом с полными ужаса глазами. Патриция хватает сына и дочь и бросается прочь из дома, решая больше не возвращаться.
Однако, ее планам не суждено сбыться, потому что муж не верит ей и не разделяет ее страхов. Вскоре Патриция обнаруживает, что в ее доме живут привидения. Из всей семьи лишь она и ее сын чувствуют их присутствие, а потусторонний гость оказывается слишком жестоким.

  • Мировая премьера: 29 октября 1996


Качество видео: DVDRip

Продолжительность: 01:28:32
Формат: AVI
Видео: XviD, 624x448 (1.39:1), 29.970 fps, 1699 kbps
Аудио #1: русский, любительский одноголосый закадровый, AC3 2.0, 48 kHz, 192 kbps
Аудио #2: английский, оригинал, AC3 2.0, 48 kHz, 192 kbps

Код:

General
Complete name : Полтергейст.avi
Format : AVI
Format/Info : Audio Video Interleave
File size : 1.30 GiB
Duration : 1h 28mn
Overall bit rate : 2 101 Kbps
Writing application : VirtualDubMod 1.5.10.2 (build 2540/release)
Writing library : VirtualDubMod build 2540/release

Video
ID : 0
Format : MPEG-4 Visual
Format profile : Advanced Simple@L5
Format settings, BVOP : 3
Format settings, QPel : No
Format settings, GMC : No warppoints
Format settings, Matrix : Default (H.263)
Codec ID : XVID
Codec ID/Hint : XviD
Duration : 1h 28mn
Bit rate : 1 699 Kbps
Width : 624 pixels
Height : 448 pixels
Display aspect ratio : 1.393
Frame rate : 29.970 fps
Color space : YUV
Chroma subsampling : 4:2:0
Bit depth : 8 bits
Scan type : Progressive
Compression mode : Lossy
Bits/(Pixel*Frame) : 0.203
Stream size : 1.05 GiB (81%)
Writing library : XviD 1.2.1 (UTC 2008-12-04)

Audio #1
ID : 1
Format : AC-3
Format/Info : Audio Coding 3
Mode extension : CM (complete main)
Format settings, Endianness : Big
Codec ID : 2000
Duration : 1h 28mn
Bit rate mode : Constant
Bit rate : 192 Kbps
Channel(s) : 2 channels
Channel positions : Front: L R
Sampling rate : 48.0 KHz
Bit depth : 16 bits
Compression mode : Lossy
Stream size : 122 MiB (9%)
Alignment : Split accross interleaves
Interleave, duration : 33 ms (1.00 video frame)
Interleave, preload duration : 500 ms

Audio #2
ID : 2
Format : AC-3
Format/Info : Audio Coding 3
Mode extension : CM (complete main)
Format settings, Endianness : Big
Codec ID : 2000
Duration : 1h 28mn
Bit rate mode : Constant
Bit rate : 192 Kbps
Channel(s) : 2 channels
Channel positions : Front: L R
Sampling rate : 48.0 KHz
Bit depth : 16 bits
Compression mode : Lossy
Stream size : 122 MiB (9%)
Alignment : Split accross interleaves
Interleave, duration : 33 ms (1.00 video frame)
Interleave, preload duration : 500 ms
picpicpicpicpic
Для увеличения картинки щелкните мышкой по превью

Этот торрент недоступен для скачивания без регистрации, однако доступен по публичной magnet-ссылке (источники с публичных трекеров). Перед использованием ссылки прочтите, пожалуйста Пользовательское соглашение, а также как можно дольше оставайтесь на раздаче! Для того, чтобы скачать сам торрент-файл (который видит больше источников), а также для того, чтобы поблагодарить релизера, вам необходимо зарегистрироваться. Если регистрироваться лень - вы можете также попробовать скачать релиз по нашим партнерским ссылкам ниже.

[underverse.su].t56263.torrent
Трекер: Зарегистрирован   [ 23.07.2015 12:20 ]  

Статус: проверено (by Паукан at 23.07.2015 14:11)
Поблагодарили: пока никто не поблагодарил...
Тип торрента: публичный - доступные источники с открытых трекеров: 
Размер: 1,3 GB (занимает 0,3 DVDR, для записи нужно 1 болванка DVDR/RW)
 
 
Похожие темы
Форум Тема Автор Торрент Отв. Посл. сооб.
T Зарубежное кино [DVDRip, Low-Res HDRip, и т.д.] Полтергейст / Poltergeist (Гил Кинан) [2015 г., ужасы, триллер, HDTVRip] Dub (звук с CAMRip) + Original makkol
2 | 0

0 | 538

12

22.06.2015 09:09

T Зарубежное кино [DVDRip, Low-Res HDRip, и т.д.] Полтергейст / Poltergeist (Гил Кинан) [2015 г., ужасы, триллер, HDTVRip] Dub (Line) makkol
183 | 1

0 | 644

46

25.06.2015 22:20

T Зарубежное кино [DVDRip, Low-Res HDRip, и т.д.] Полтергейст (Расширенная версия) / Poltergeist (Extended Cut) (Гил Кинан) [2015 г., ужасы, триллер, WEB-DLRip] Dub makkol
23 | 0

0 | 422

16

04.09.2015 14:00

Зарубежное кино [DVD / HDDVD / BD / Remux] Полтергейст / Poltergeist (Гил Кинан) [2015 г., ужасы, триллер, Blu-Ray Remux] Extended Cut | iTunes | Dub (Rus) + Dub (Ukr) + Original + Subs ultarasbarcelona
3 | 0

0 | 1000

9

18.09.2015 17:45

Зарубежное кино [HDDVDRip / BDRip / WEB-DL / HDTV 1080/720р] Полтергейст. Трилогия / Poltergeist. Trilogy (Тоб Хупер, Брайан Гибсон, Гэри Шерман) [1982-1988 г., Ужасы, BDRip 720p] MVO (Rus) + AVO (Rus, Либергал, Визгунов) + Original (Eng) + Subs (Rus, Eng) Ведьмочка
1 | 0

0 | 974

7

17.07.2014 09:08

T Зарубежное кино [HDDVDRip / BDRip / WEB-DL / HDTV 1080/720р] Полтергейст / Poltergeist (Гил Кинан) [2015 г., ужасы, триллер, HDTVRip 1080p] Dub (звук с CAMRip) + Original makkol
0 | 0

0 | 533

5

22.06.2015 09:20

T Зарубежное кино [HDDVDRip / BDRip / WEB-DL / HDTV 1080/720р] Полтергейст / Poltergeist (Гил Кинан) [2015 г., ужасы, триллер, HDTVRip 1080p] Dub (Line) + Original makkol
268 | 4

0 | 675

15

25.06.2015 22:35

T Зарубежное кино [HDDVDRip / BDRip / WEB-DL / HDTV 1080/720р] Полтергейст / Poltergeist (Гил Кинан) [2015 г., ужасы, триллер, HDTVRip 720p] Dub (Line) + Original makkol
24 | 0

0 | 500

10

25.06.2015 22:50

T Зарубежное кино [HDDVDRip / BDRip / WEB-DL / HDTV 1080/720р] Полтергейст (Расширенная версия) / Poltergeist (Extended Cut) (Гил Кинан) [2015 г., ужасы, триллер, WEB-DL 720p] Dub makkol
43 | 1

0 | 294

13

04.09.2015 14:11

T Зарубежное кино [HDDVDRip / BDRip / WEB-DL / HDTV 1080/720р] Полтергейст (Расширенная версия) / Poltergeist (Extended Cut) (Гил Кинан) [2015 г., ужасы, триллер, WEB-DL 1080p] Dub makkol
3 | 0

0 | 483

17

04.09.2015 14:23


Яндекс.Метрика powered by Sphinx


В Н И М А Н И Е
Сайт не распространяет и не хранит электронные версии произведений, а лишь бесплатно и без коммерческой выгоды (не требуя взамен платы,
SMS и т.д.) предоставляет доступ к создаваемому пользователями каталогу ссылок на торрент-файлы, которые содержат только списки хеш-сумм.
Убедительная просьба с жалобами обращаться напрямую к пользователю, разместившему торрент файл.

Вверх