Loading...
Error

Молодая кровь / Son of a Gun (Джулиус Эйвери) [2014 г., боевик, драма, криминальный, HDRip] MVO

Статистика раздачи
Размер:  1,37 GB   |    Зарегистрирован:  1 год 4 месяца   |    Скачан:  39 раз

Полного источника не было: 1 месяц 2 дня

Сидов:  0  |  0 KB/s  ]   Личеров:  0  |  0 KB/s  ]

* - сиды/пиры с внешних источников

   
 
Автор Сообщение

makkol Пол:Муж

22-Июл-2015 23:27

Молодая кровь / Son of a Gun
«Каждый получает то, что заслужил»


Год выпуска: 2014
Жанр: боевик, драма, криминальный
Производство: Австралия [Altitude Film Entertainment, Bridle Path Films, Media House Capital]
Режиссер: Джулиус Эйвери
В ролях: Брентон Туэйтс, Юэн МакГрегор, Алисия Викандер, Мэтью Нэйбл, Дэймон Херриман, Нэш Эдгертон, Яцек Коман, Джесси МакДжинн, Эдди Бару, Том Бадж
Сюжет фильма:
Джей и красавица Наташа любят друг друга. И всё бы ничего, если бы молодая пара не поучаствовала в ограблении века и не похитила груду золота. Но главная проблема в том, что предводитель их банды — легендарный грабитель Брэндан Линч, не собирается ни с кем делиться добычей. И вовсе не хочет никого отпускать «жить счастливо». Поэтому Джей с Наташей могут либо «умереть в один день», либо придумать собственный хитроумный план со счастливым концом.

  • Мировая премьера: 16 октября 2014


Качество видео: HDRip

Продолжительность: 01:48:50
Формат: AVI
Видео: XviD, 720x304 (2.35:1), 24.000 fps, 1405 kbps
Аудио: русский, профессиональный многоголосый закадровый (iTunes), AC3 5.1, 48 kHz, 384 kbps

Код:

Общее
Полное имя : M0lodaya.kr0v.2014.P.HDRip.1400Mb.avi
Формат : AVI
Формат/Информация : Audio Video Interleave
Размер файла : 1,37 Гбайт
Продолжительность : 1 ч. 48 м.
Общий поток : 1798 Кбит/сек
Программа кодирования : VirtualDubMod 1.5.10.2 (build 2540/release)
Библиотека кодирования : VirtualDubMod build 2540/release

Видео
Идентификатор : 0
Формат : MPEG-4 Visual
Профиль формата : Advanced Simple@L5
Параметр BVOP формата : 2
Параметр QPel формата : Нет
Параметр GMC формата : Без точки перехода
Параметр матрицы формата : Default (MPEG)
Идентификатор кодека : XVID
Идентификатор кодека/Подсказка : XviD
Продолжительность : 1 ч. 48 м.
Битрейт : 1405 Кбит/сек
Ширина : 720 пикселей
Высота : 304 пикселя
Соотношение сторон : 2,35:1
Частота кадров : 24,000 кадра/сек
Цветовое пространство : YUV
Субдискретизация насыщенности : 4:2:0
Битовая глубина : 8 бит
Тип развёртки : Прогрессивная
Метод сжатия : С потерями
Бит/(Пиксели*Кадры) : 0.267
Размер потока : 1,07 Гбайт (78%)
Библиотека кодирования : XviD 1.2.1 (UTC 2008-12-04)

Аудио
Идентификатор : 1
Формат : AC-3
Формат/Информация : Audio Coding 3
Расширение режима : CM (complete main)
Параметр Endianness формата : Big
Идентификатор кодека : 2000
Продолжительность : 1 ч. 48 м.
Вид битрейта : Постоянный
Битрейт : 384 Кбит/сек
Каналы : 6 каналов
Расположение каналов : Front: L C R, Side: L R, LFE
Частота : 48,0 КГц
Битовая глубина : 16 бит
Метод сжатия : С потерями
Размер потока : 299 Мбайт (21%)
Выравнивание : Разделение по промежуткам
Продолжительность промежутка : 42 мс. (1,00 видеокадр)
Время предзагрузки промежутка : 500 мс.
picpicpicpicpic
Для увеличения картинки щелкните мышкой по превью

Этот торрент недоступен для скачивания без регистрации, однако доступен по публичной magnet-ссылке (источники с публичных трекеров). Перед использованием ссылки прочтите, пожалуйста Пользовательское соглашение, а также как можно дольше оставайтесь на раздаче! Для того, чтобы скачать сам торрент-файл (который видит больше источников), а также для того, чтобы поблагодарить релизера, вам необходимо зарегистрироваться. Если регистрироваться лень - вы можете также попробовать скачать релиз по нашим партнерским ссылкам ниже.

[underverse.su].t56239.torrent
Трекер: Зарегистрирован   [ 22.07.2015 23:27 ]  

Статус: T временная (by Паукан at 29.07.2015 09:45)
Поблагодарили: 3 человека
Тип торрента: публичный - доступные источники с открытых трекеров: 
Размер: 1,37 GB (занимает 0,31 DVDR, для записи нужно 1 болванка DVDR/RW)
 
 
Похожие темы
Форум Тема Автор Торрент Отв. Посл. сооб.
Зарубежное кино [DVDRip, Low-Res HDRip, и т.д.] Молодая кровь / Son of a gun (Джулиус Эйвери / Julius Avery) [2014 г., боевик, драма, криминал, WEB-DLRip] DVO [Студия Пиратского Дубляжа] Паукан
1 | 0

0 | 909

8

29.12.2014 16:38

Зарубежное кино [DVDRip, Low-Res HDRip, и т.д.] Молодая кровь / Son of a Gun (Джулиус Эйвери) [2014 г., боевик, драма, криминал, WEB-DLRip] VO [den904] + Original Паукан
125 | 6

0 | 1097

9

29.12.2014 16:44

Зарубежное кино [DVDRip, Low-Res HDRip, и т.д.] Молодая кровь / Son of a Gun (Джулиус Эйвери) [2014 г., боевик, драма, криминал, WEB-DLRip] DVO [Студия Пиратского Дубляжа] Паукан
20 | 0

0 | 995

9

29.12.2014 16:47

* Зарубежное кино [DVDRip, Low-Res HDRip, и т.д.] Молодая кровь / Son of a Gun (Джулиус Эйвери) [2014 г., боевик, драма, криминал, HDRip] DVO 90ytr90

0 | 477

06.02.2015 07:15

Зарубежное кино [DVDRip, Low-Res HDRip, и т.д.] Молодая кровь / Son of a Gun (Джулиус Эйвери) [2014 г., боевик, драма, криминал, HDRip] DVO + Original (Eng) 90ytr90
0 | 0

1 | 862

19

11.02.2015 22:47

Зарубежное кино [DVDRip, Low-Res HDRip, и т.д.] Молодая кровь / La tete haute (Эмманюэль Берко) [2015 г., драма, HDRip] MVO makkol
58 | 1

0 | 529

28

24.12.2015 22:14

T Зарубежное кино [DVDRip, Low-Res HDRip, и т.д.] Молодая кровь / Son of a Gun (Джулиус Эйвери) [2014 г., боевик, триллер, драма, криминал, BDRip-AVC] MVO (iTunes) + Subs Dryn9
4 | 1

1 | 1701

5

07.05.2016 13:11

T Зарубежное кино [DVDRip, Low-Res HDRip, и т.д.] Молодая кровь / La tete haute (Эмманюэль Берко) [2015 г., драма, HDRip] MVO (iTunes) makkol
0 | 0

0 | 402

2

29.05.2016 14:01

Зарубежное кино [HDDVDRip / BDRip / WEB-DL / HDTV 1080/720р] Молодая кровь / Son of a Gun (Джулиус Эйвери) [2014 г., боевик, драма, криминал, WEB-DL 720p] DVO [Студия Пиратского Дубляжа] + Original + Sub (Eng) Паукан
0 | 0

0 | 934

16

29.12.2014 16:49

T Зарубежное кино [HDDVDRip / BDRip / WEB-DL / HDTV 1080/720р] Молодая кровь / Son of a Gun (Джулиус Эйвери) [2014 г., боевик, драма, криминальный, BDRip 1080p] MVO + DVO + Original + Subs (Eng) makkol
0 | 0

0 | 923

11

22.07.2015 23:42


Яндекс.Метрика powered by Sphinx


В Н И М А Н И Е
Сайт не распространяет и не хранит электронные версии произведений, а лишь бесплатно и без коммерческой выгоды (не требуя взамен платы,
SMS и т.д.) предоставляет доступ к создаваемому пользователями каталогу ссылок на торрент-файлы, которые содержат только списки хеш-сумм.
Убедительная просьба с жалобами обращаться напрямую к пользователю, разместившему торрент файл.

Вверх