Loading...
Error

Монстры 2: Тёмный континент / Monsters: Dark Continent (Том Грин) [2014 г., фантастика, триллер, драма, HDRip] MVO

Статистика раздачи
Размер:  1,45 GB   |    Зарегистрирован:  1 год 4 месяца   |    Скачан:  34 раза

Полного источника не было: 4 месяца 17 дней

Сидов:  0  |  0 KB/s  ]   Личеров:  0  |  0 KB/s  ]

* - сиды/пиры с внешних источников

   
 
Автор Сообщение

makkol Пол:Муж

22-Июл-2015 14:50

Монстры 2: Тёмный континент / Monsters: Dark Continent


Год выпуска: 2014
Жанр: фантастика, триллер, драма
Производство: Великобритания [Between The Eyes, International Traders, Vertigo Films]
Режиссер: Том Грин
В ролях: Джонни Харрис, Сэм Кили, Джозеф Демпси, Кайл Соллер, Николас Пиннок, Паркер Сойерс, Филип Ардитти, София Бутелла, Михаэла Коэл, Hassan Sha'er
Сюжет фильма:
Прошло 7 лет после событий первой части, и «зараженные зоны» распространились по всему миру. Теперь человечество борется за выживание. Эмилио, молодой врач, присоединяется к спасательной операции по поиску пропавших в самом центре территории монстров. Ужас того, о чем он узнает во время экспедиции, не поддается описанию…

  • Мировая премьера: 26 сентября 2014
  • Российская премьера: 5 июля 2015


Качество видео: HDRip

Продолжительность: 01:59:03
Формат: AVI
Видео: XviD, 720x304 (2.35:1), 23.976 fps, 1356 kbps
Аудио: русский, профессиональный многоголосый закадровый (iTunes), AC3 5.1, 48 kHz, 384 kbps

Код:

Общее
Полное имя : Monstry.2.Temnyj.kontinent.2014.P.HDRip.1.46GB.avi
Формат : AVI
Формат/Информация : Audio Video Interleave
Размер файла : 1,45 Гбайт
Продолжительность : 1 ч. 59 м.
Общий поток : 1749 Кбит/сек
Программа кодирования : VirtualDubMod 1.5.10.2 (build 2540/release)
Библиотека кодирования : VirtualDubMod build 2540/release

Видео
Идентификатор : 0
Формат : MPEG-4 Visual
Профиль формата : Advanced Simple@L5
Параметр BVOP формата : 2
Параметр QPel формата : Нет
Параметр GMC формата : Без точки перехода
Параметр матрицы формата : Default (MPEG)
Идентификатор кодека : XVID
Идентификатор кодека/Подсказка : XviD
Продолжительность : 1 ч. 59 м.
Битрейт : 1356 Кбит/сек
Ширина : 720 пикселей
Высота : 304 пикселя
Соотношение сторон : 2,35:1
Частота кадров : 23,976 кадра/сек
Цветовое пространство : YUV
Субдискретизация насыщенности : 4:2:0
Битовая глубина : 8 бит
Тип развёртки : Прогрессивная
Метод сжатия : С потерями
Бит/(Пиксели*Кадры) : 0.258
Размер потока : 1,13 Гбайт (78%)
Библиотека кодирования : XviD 1.2.1 (UTC 2008-12-04)

Аудио
Идентификатор : 1
Формат : AC-3
Формат/Информация : Audio Coding 3
Расширение режима : CM (complete main)
Параметр Endianness формата : Big
Идентификатор кодека : 2000
Продолжительность : 1 ч. 59 м.
Вид битрейта : Постоянный
Битрейт : 384 Кбит/сек
Каналы : 6 каналов
Расположение каналов : Front: L C R, Side: L R, LFE
Частота : 48,0 КГц
Битовая глубина : 16 бит
Метод сжатия : С потерями
Размер потока : 327 Мбайт (22%)
Выравнивание : Разделение по промежуткам
Продолжительность промежутка : 42 мс. (1,00 видеокадр)
Время предзагрузки промежутка : 500 мс.
picpicpicpicpic
Для увеличения картинки щелкните мышкой по превью

Этот торрент недоступен для скачивания без регистрации, однако доступен по публичной magnet-ссылке (источники с публичных трекеров). Перед использованием ссылки прочтите, пожалуйста Пользовательское соглашение, а также как можно дольше оставайтесь на раздаче! Для того, чтобы скачать сам торрент-файл (который видит больше источников), а также для того, чтобы поблагодарить релизера, вам необходимо зарегистрироваться. Если регистрироваться лень - вы можете также попробовать скачать релиз по нашим партнерским ссылкам ниже.

[underverse.su].t56226.torrent
Трекер: Зарегистрирован   [ 22.07.2015 14:50 ]  

Статус: T временная (by Паукан at 29.07.2015 09:46)
Поблагодарили: пока никто не поблагодарил...
Тип торрента: публичный - доступные источники с открытых трекеров: 
Размер: 1,45 GB (занимает 1/3 DVDR, для записи нужно 1 болванка DVDR/RW)
 
 
Похожие темы
Форум Тема Автор Торрент Отв. Посл. сооб.
Зарубежное кино [DVDRip, Low-Res HDRip, и т.д.] Монстры 2: Тёмный континент / Monsters: Dark Continent (Том Грин) [2014 г., фантастика, триллер, драма, HDRip] VO [Paul Bunyan] Паукан
39 | 1

0 | 616

24

27.05.2015 12:04

Зарубежное кино [DVDRip, Low-Res HDRip, и т.д.] Монстры 2: Тёмный континент / Monsters: Dark Continent (Том Грин) [2014 г., фантастика, триллер, драма, HDRip] VO [Paul Bunyan] Паукан
2 | 0

0 | 775

44

27.05.2015 12:07

T Зарубежное кино [HDDVDRip / BDRip / WEB-DL / HDTV 1080/720р] Монстры 2: Тёмный континент / Monsters: Dark Continent (Том Грин ) [2014 г., фантастика, триллер, драма, BDRip 720p] MVO + Original makkol
0 | 0

0 | 284

12

22.07.2015 15:08

T Зарубежное кино [HDDVDRip / BDRip / WEB-DL / HDTV 1080/720р] Монстры 2: Тёмный континент / Monsters: Dark Continent (Том Грин) [2014 г., фантастика, триллер, драма, BDRip 1080p] MVO + VO + Original makkol
0 | 0

1 | 583

11

26.07.2015 13:06


Яндекс.Метрика powered by Sphinx


В Н И М А Н И Е
Сайт не распространяет и не хранит электронные версии произведений, а лишь бесплатно и без коммерческой выгоды (не требуя взамен платы,
SMS и т.д.) предоставляет доступ к создаваемому пользователями каталогу ссылок на торрент-файлы, которые содержат только списки хеш-сумм.
Убедительная просьба с жалобами обращаться напрямую к пользователю, разместившему торрент файл.

Вверх