Loading...
Error

Боец / 1-2 сезоны/ 1-12(12)+1-14(14) (Евгений Серов,Иван Криворучко (мл.) [2004,2008 г. г., боевик, драма, криминальный, DVDRip]

Статистика раздачи
Размер:  13,88 GB   |    Зарегистрирован:  1 год 4 месяца   |    Скачан:  10 раз

Полного источника не было: 1 год

Сидов:  0  |  0 KB/s  ]   Личеров:  0  |  0 KB/s  ]

* - сиды/пиры с внешних источников

   
 
Автор Сообщение

marunovgn 

22-Июл-2015 11:50

Боец


Год выпуска: 2004
Жанр: боевик, драма, криминальный
Страна: Россия
Режиссер: Евгений Серов
В ролях: Дмитрий Марьянов, Александр Носик, Андрей И, Алёна Яковлева, Рамиль Сабитов, Александр Ильин, Анна Снаткина, Вячеслав Шалевич, Эдуард Марцевич, Александр Пашутин, Юрий Шерстнёв, Шухрат Иргашев, Владимир Литвинов, Сергей Греков, Вячеслав Гришечкин, Владимир Гусев (II), Геннадий Венгеров, Владислав Дёмин, Евгений Серов, Дарья Лузина, Ирина Даниленко, Ян Цапник, Алексей Ошурков, Виктор Григорюк, Олег Васильков, Михаил Шашков, Александр Соловьёв (младший), Александр Чмелёв и др.
Сюжет фильма:
Максим Паладин — морской пехотинец. Он был тяжело ранен, но сумел выкарабкаться с того света. Вика Варшавская всячески способствовала выздоровлению Максима и выходит за него замуж.
Ее отец — Павел Валерьянович Варшавский — когда-то жил от зарплаты до зарплаты, а потом уехал в Америку и там сказочно разбогател. Но здесь, в России, остались люди, которым он что-то должен. Правда, этим людям не нужно «что-то», они хотят забрать все...



Продолжительность: 12* ~ 00:45:00
Формат: AVI
Видео: DivX, 672 х 368, ~ 1350 kbps
Аудио: русский, AC3 2.0, 256 kbps
D:\Boech .(1-2.sezoni).2004-2008.DivX.DVDRip ]\Boez.(1.sezon.12.seriy.iz.12).2004.DivX.DVDRip\Boez.(1.sezon.10.serija.iz.12).2004.DivX.DVDRip.avi
General
Complete name : D:\Boech .(1-2.sezoni).2004-2008.DivX.DVDRip ]\Boez.(1.sezon.12.seriy.iz.12).2004.DivX.DVDRip\Boez.(1.sezon.10.serija.iz.12).2004.DivX.DVDRip.avi
Format : AVI
Format/Info : Audio Video Interleave
File size : 550 MiB
Duration : 47mn 24s
Overall bit rate : 1 622 Kbps
Writing application : FairUse Wizard - http://fairusewizard.com
Writing library : The best and REALLY easy backup tool
Video #0
ID : 0
Format : MPEG-4 Visual
Format settings, BVOP : 1
Format settings, QPel : No
Format settings, GMC : No warppoints
Format settings, Matrix : Default (H.263)
Muxing mode : Packed bitstream
Codec ID : DX50
Codec ID/Hint : DivX 5
Duration : 47mn 24s
Bit rate : 1 356 Kbps
Width : 672 pixels
Height : 368 pixels
Display aspect ratio : 1.85:1
Frame rate : 25.000 fps
Color space : YUV
Chroma subsampling : 4:2:0
Bit depth : 8 bits
Scan type : Progressive
Compression mode : Lossy
Bits/(Pixel*Frame) : 0.219
Stream size : 460 MiB (84%)
Writing library : DivX 6.8.5 (UTC 2009-08-20)
Audio #1
ID : 1
Format : AC-3
Format/Info : Audio Coding 3
Mode extension : CM (complete main)
Format settings, Endianness : Big
Codec ID : 2000
Duration : 47mn 24s
Bit rate mode : Constant
Bit rate : 256 Kbps
Channel(s) : 2 channels
Channel positions : Front: L R
Sampling rate : 48.0 KHz
Bit depth : 16 bits
Compression mode : Lossy
Stream size : 86.8 MiB (16%)
Alignment : Split accross interleaves
Interleave, duration : 40 ms (1.00 video frame)
Interleave, preload duration : 500 ms
picpicpic
Для увеличения картинки щелкните мышкой по превью
Боец 2
Год выпуска: 2008
Жанр: боевик, драма, криминальный
Страна: Россия
Режиссер: Иван Криворучко (мл.)
В ролях: Константин Соловьёв, Владимир Кошевой, Юлия Рудина, Сергей Удовик, Александр Ильин, Вячеслав Шалевич, Алексей Девотченко, Михаил Елисеев, Рамиль Сабитов, Александр Блок, Светлана Свибильская, Алёна Яковлева, Валерий Соловьёв, Ян Цапник, Владимир Литвинов, Владимир Гусев (II), Аркадий Коваль, Иван Криворучко, Сергей Мосьпан, Владислав Дёмин, Сергей Греков, Александра Родина, Елена Симонова, Сергей Агафонов, Владимир Маслаков, Александр Строев (III), Роман Жилкин, Константин Овсянников, Денис Курышев и др.
Сюжет фильма:
эта история начинается в середине девяностых, за несколько лет до событий, описанных в первой части (сериал "Боец"). Конечно, дело происходит в Ростове - не реальном, а мифическом "бойцовском" городе, где обитают почти что былинные персонажи - таинственные, могучие, обуреваемые безумными страстями, и в то же время вполне социально определённые и узнаваемые.
Легенду рассказывает всё тот же Дед, вечный скиталец по тюрьмам и пересылкам. Бывалый пройдоха, "битый каторжанин", обожающий красиво, со смаком, приврать, описывая малолеткам эпические приключения суперменов криминального мира. И в этот раз история начнётся с тюремного вагона, в котором Дед затягивает очередную байку. Истинные события будут отличаться от романтической версии Деда и, возможно, подаваться не в прямой хронологической последовательности, как это часто бывает в современном кино.


Продолжительность: 14* ~ 00:45:00
Формат: AVI
Видео: DivX, 720х416, ~ 1350 kbps
Аудио: русский, AC3 2.0, 256 kbps
D:\Boech .(1-2.sezoni).2004-2008.DivX.DVDRip ]\Boez.Rojdenije.legendy.(2.sezon.14.seriy.iz.14).2008.DivX.DVDRip\Boez.Rojdenije.legendy.(2.sezon.02.serija.iz.14).2008.DivX.DVDRip.avi
General
Complete name : D:\Boech .(1-2.sezoni).2004-2008.DivX.DVDRip ]\Boez.Rojdenije.legendy.(2.sezon.14.seriy.iz.14).2008.DivX.DVDRip\Boez.Rojdenije.legendy.(2.sezon.02.serija.iz.14).2008.DivX.DVDRip.avi
Format : AVI
Format/Info : Audio Video Interleave
File size : 544 MiB
Duration : 47mn 11s
Overall bit rate : 1 611 Kbps
Writing application : VirtualDubMod 1.5.4.1 (build 2178/release)
Writing library : VirtualDubMod build 2178/release
Video #0
ID : 0
Format : MPEG-4 Visual
Format settings, BVOP : 1
Format settings, QPel : No
Format settings, GMC : No warppoints
Format settings, Matrix : Default (H.263)
Muxing mode : Packed bitstream
Codec ID : DX50
Codec ID/Hint : DivX 5
Duration : 47mn 11s
Bit rate : 1 345 Kbps
Width : 720 pixels
Height : 416 pixels
Display aspect ratio : 1.731
Frame rate : 25.000 fps
Color space : YUV
Chroma subsampling : 4:2:0
Bit depth : 8 bits
Scan type : Progressive
Compression mode : Lossy
Bits/(Pixel*Frame) : 0.180
Stream size : 454 MiB (84%)
Writing library : DivX 6.8.2 (UTC 2008-05-17)
Audio #1
ID : 1
Format : AC-3
Format/Info : Audio Coding 3
Mode extension : CM (complete main)
Format settings, Endianness : Big
Codec ID : 2000
Duration : 47mn 11s
Bit rate mode : Constant
Bit rate : 256 Kbps
Channel(s) : 2 channels
Channel positions : Front: L R
Sampling rate : 48.0 KHz
Bit depth : 16 bits
Compression mode : Lossy
Delay relative to video : 16ms
Stream size : 86.4 MiB (16%)
Alignment : Split accross interleaves
Interleave, duration : 40 ms (1.00 video frame)
Interleave, preload duration : 500 ms
picpicpic
Для увеличения картинки щелкните мышкой по превью

Этот торрент недоступен для скачивания без регистрации, однако доступен по публичной magnet-ссылке (источники с публичных трекеров). Перед использованием ссылки прочтите, пожалуйста Пользовательское соглашение, а также как можно дольше оставайтесь на раздаче! Для того, чтобы скачать сам торрент-файл (который видит больше источников), а также для того, чтобы поблагодарить релизера, вам необходимо зарегистрироваться. Если регистрироваться лень - вы можете также попробовать скачать релиз по нашим партнерским ссылкам ниже.

[underverse.su].t56225.torrent
Трекер: Зарегистрирован   [ 22.07.2015 12:38 ]  

Статус: проверено (by Паукан at 29.07.2015 09:47)
Поблагодарили: 1 человек
Тип торрента: публичный - доступные источники с открытых трекеров: 
Размер: 13,88 GB (занимает 3,17 DVDR, для записи нужно 4 болванки DVDR/RW)
 
 


Последний раз редактировалось: marunovgn (22.07.2015 22:12), всего редактировалось 1 раз

marunovgn 

22-Июл-2015 12:51

Прошу модератоов раздела перенести раздачу в
форум"Отечественные сериалы".Ошибся,признаю свою вину,меру,степень,глубину !

29-Июл-2015 09:47

Топик был перенесен из форума Зарубежные сериалы в форум xUSSR сериалы


Паукан
 

Яндекс.Метрика powered by Sphinx


В Н И М А Н И Е
Сайт не распространяет и не хранит электронные версии произведений, а лишь бесплатно и без коммерческой выгоды (не требуя взамен платы,
SMS и т.д.) предоставляет доступ к создаваемому пользователями каталогу ссылок на торрент-файлы, которые содержат только списки хеш-сумм.
Убедительная просьба с жалобами обращаться напрямую к пользователю, разместившему торрент файл.

Вверх