Loading...
Error

Большая игра / Big Game (Ялмари Хеландер) [2014 г., боевик, приключения, HDRip] Dub

Статистика раздачи
Размер:  1,37 GB   |    Зарегистрирован:  1 год 4 месяца   |    Скачан:  31 раз

Полного источника не было: 1 месяц 17 дней

Сидов:  0  |  0 KB/s  ]   Личеров:  0  |  0 KB/s  ]

* - сиды/пиры с внешних источников

   
 
Автор Сообщение

makkol Пол:Муж

21-Июл-2015 23:17

Большая игра / Big Game
«Бардак Обмана»


Год выпуска: 2014
Жанр: боевик, приключения
Производство: Финляндия , Великобритания , Германия [Subzero Film Entertainment, Altitude Film Entertainment, Egoli Tossell Film]
Режиссер: Ялмари Хеландер
В ролях: Сэмюэл Л. Джексон, Онни Томмила, Рэй Стивенсон, Виктор Гарбер, Мехмет Куртулус, Тед Левайн, Йорма Томмила, Ристо Сэлми, Фелисити Хаффман, Джим Бродбент
Сюжет фильма:
История робкого подростка по имени Оскари. Как и его прадеды, согласно традициям, мальчик должен провести один день и одну ночь в непроходимой глуши. Вооружённый только луком и стрелами, он должен вернуться с добычей, которая ознаменует его становление как мужчины. Кто бы мог подумать, что такой добычей станет президент США! Вот так судьба одного из самых влиятельных людей во всем мире оказывается в руках подростка. Вовлеченные в смертельно опасную, но от этого не менее смешную игру в «кошки-мышки», имея всего несколько часов форы — Оскари и Президент США должны сплотиться, чтобы пережить самую необычную ночь в своей жизни.

  • Мировая премьера: 5 сентября 2014
  • Российская премьера: 16 апреля 2015


Качество видео: HDRip

Продолжительность: 01:30:23
Формат: AVI
Видео: XviD, 720x304 (2.35:1), 23.976 fps, 1770 kbps
Аудио: русский, дублированный (iTunes), AC3 5.1, 48 kHz, 384 kbps

Код:

Общее
Полное имя                               : b0LshaYa.1gPa.2015.D.HDRip.1400Mb.avi
Формат                                   : AVI
Формат/Информация                        : Audio Video Interleave
Размер файла                             : 1,37 Гбайт
Продолжительность                        : 1 ч. 30 м.
Общий поток                              : 2163 Кбит/сек
Программа кодирования                    : VirtualDubMod 1.5.10.2 (build 2540/release)
Библиотека кодирования                   : VirtualDubMod build 2540/release

Видео
Идентификатор                            : 0
Формат                                   : MPEG-4 Visual
Профиль формата                          : Advanced Simple@L5
Параметр BVOP формата                    : 2
Параметр QPel формата                    : Нет
Параметр GMC формата                     : Без точки перехода
Параметр матрицы формата                 : Default (MPEG)
Идентификатор кодека                     : XVID
Идентификатор кодека/Подсказка           : XviD
Продолжительность                        : 1 ч. 30 м.
Битрейт                                  : 1770 Кбит/сек
Ширина                                   : 720 пикселей
Высота                                   : 304 пикселя
Соотношение сторон                       : 2,35:1
Частота кадров                           : 23,976 кадра/сек
Цветовое пространство                    : YUV
Субдискретизация насыщенности            : 4:2:0
Битовая глубина                          : 8 бит
Тип развёртки                            : Прогрессивная
Метод сжатия                             : С потерями
Бит/(Пиксели*Кадры)                      : 0.321
Размер потока                            : 1,06 Гбайт (78%)
Библиотека кодирования                   : XviD 1.2.1 (UTC 2008-12-04)

Аудио
Идентификатор                            : 1
Формат                                   : AC-3
Формат/Информация                        : Audio Coding 3
Расширение режима                        : CM (complete main)
Параметр Endianness формата              : Big
Идентификатор кодека                     : 2000
Продолжительность                        : 1 ч. 30 м.
Вид битрейта                             : Постоянный
Битрейт                                  : 384 Кбит/сек
Каналы                                   : 6 каналов
Расположение каналов                     : Front: L C R, Side: L R, LFE
Частота                                  : 48,0 КГц
Битовая глубина                          : 16 бит
Метод сжатия                             : С потерями
Размер потока                            : 249 Мбайт (18%)
Выравнивание                             : Разделение по промежуткам
picpicpicpicpic
Для увеличения картинки щелкните мышкой по превью

Этот торрент недоступен для скачивания без регистрации, однако доступен по публичной magnet-ссылке (источники с публичных трекеров). Перед использованием ссылки прочтите, пожалуйста Пользовательское соглашение, а также как можно дольше оставайтесь на раздаче! Для того, чтобы скачать сам торрент-файл (который видит больше источников), а также для того, чтобы поблагодарить релизера, вам необходимо зарегистрироваться. Если регистрироваться лень - вы можете также попробовать скачать релиз по нашим партнерским ссылкам ниже.

[underverse.su].t56216.torrent
Трекер: Зарегистрирован   [ 21.07.2015 23:17 ]  

Статус: T временная (by makkol at 08.08.2015 14:57)
Поблагодарили: пока никто не поблагодарил...
Тип торрента: публичный - доступные источники с открытых трекеров: 
Размер: 1,37 GB (занимает 0,31 DVDR, для записи нужно 1 болванка DVDR/RW)
 
 
Похожие темы
Форум Тема Автор Торрент Отв. Посл. сооб.
Зарубежное кино [DVDRip, Low-Res HDRip, и т.д.] Большая игра / Suurriistaa / Big Game (Ялмари Хеландер) [2014 г., боевик, приключения, WEBRip] DVO makkol
6 | 0

0 | 886

66

01.06.2015 23:27

T Зарубежное кино [DVDRip, Low-Res HDRip, и т.д.] Большая игра / Big Game (Ялмари Хеландер) [2014 г., боевик, приключения, WEB-DLRip] Dub makkol
24 | 0

0 | 554

43

25.06.2015 23:30

T Зарубежное кино [DVDRip, Low-Res HDRip, и т.д.] Большая игра / Big Game (Ялмари Хеландер / Jalmari Helander) [2014 г., боевик, приключения, BDRip-AVC] Dub (iTunes) + Sub (Rus) 90ytr90
34 | 0

0 | 503

16

31.01.2016 13:44

T Зарубежное кино [DVDRip, Low-Res HDRip, и т.д.] Большая игра / Big Game (Ялмари Хеландер / Jalmari Helander) [2014 г., боевик, приключения, BDRip-AVC] Dub (iTunes) + Original (Eng) + Sub (Rus, Eng) 90ytr90
31 | 1

0 | 572

14

31.01.2016 13:51

Зарубежное кино [HDDVDRip / BDRip / WEB-DL / HDTV 1080/720р] Большая игра / State of Play (Кевин МакДональд) [2009 г., Драма, Детектив, BDRip 720p] Dub (Rus) + Original (Eng) + Subs (Rus, Eng) Ведьмочка
3 | 0

0 | 857

10

09.07.2014 13:13

T Зарубежное кино [HDDVDRip / BDRip / WEB-DL / HDTV 1080/720р] Большая игра / Big Game (Ялмари Хеландер) [2014 г., боевик, приключения, WEB-DL 1080p] Dub makkol
56 | 1

0 | 495

31

26.06.2015 00:03

T Зарубежное кино [HDDVDRip / BDRip / WEB-DL / HDTV 1080/720р] Большая игра / Big Game (Ялмари Хеландер) [2014 г., боевик, приключения, BDRip 720p] Dub + Original makkol
23 | 1

0 | 389

15

21.07.2015 23:35

T Зарубежное кино [HDDVDRip / BDRip / WEB-DL / HDTV 1080/720р] Большая игра / Big Game (Ялмари Хеландер) [2014 г., боевик, приключения, BDRip 1080p] Dub + Original + Subs (Eng) makkol
14 | 1

0 | 457

18

22.07.2015 23:07

* Архив Большая игра / State of Play (Кевин МакДональд) [2009 г., триллер, драма, криминал, детектив, HD DVDRip] bokalchik

3 | 2160

29.08.2010 23:52

Архив Большая игра / State of Play (Кевин МакДональд) [2009 г., триллер, драма, детектив, BDRip] GUree
0 | 0

1 | 1602

1

05.11.2011 14:45


Яндекс.Метрика powered by Sphinx


В Н И М А Н И Е
Сайт не распространяет и не хранит электронные версии произведений, а лишь бесплатно и без коммерческой выгоды (не требуя взамен платы,
SMS и т.д.) предоставляет доступ к создаваемому пользователями каталогу ссылок на торрент-файлы, которые содержат только списки хеш-сумм.
Убедительная просьба с жалобами обращаться напрямую к пользователю, разместившему торрент файл.

Вверх