Loading...
Error

Тьма, свирепость и ярость / 13-й блок / The Darkness, Rage and the Fury / The 13th Unit (Тэофилус Лэйси) [2014 г., ужасы, фантастика, триллер, HDRip] VO + Original

Статистика раздачи
Размер:  726 MB   |    Зарегистрирован:  1 год 4 месяца   |    Скачан:  14 раз

Полного источника не было: 2 месяца 20 дней

Сидов:  0  |  0 KB/s  ]   Личеров:  0  |  0 KB/s  ]

* - сиды/пиры с внешних источников

   
 
Автор Сообщение

makkol Пол:Муж

21-Июл-2015 22:39

Тьма, свирепость и ярость / 13-й блок / The Darkness, Rage and the Fury / The 13th Unit


Год выпуска: 2014
Жанр: ужасы, фантастика, триллер
Страна: США
Режиссер: Тэофилус Лэйси
В ролях: Джон Аллен Филлипс, Лэнс Аарон, Эйдан Бристоу, Робби Дэймонд, Роки Дюшарм, Карлос Джозеф, Кейт Келли, Мэнди Мэй, Мэтт Миллер
Сюжет фильма:
В августе 1937 года произошло жестокое убийство. Полиция так и не смогла найти виновного в этом преступлении. Спустя 74 года кровавые события вновь повторяются. Совершенно незнакомые люди оказываются заложниками ситуации: все они оказались в закрытом пространстве хранилища старого здания. Тут они сталкиваются с загадочным существом, которое несет смерть.

Описание с Кинопоиска :prankster2:
Несколько человек, незнакомых друг с другом, по разным причинам остаются закрытыми в местном хранилище вещей. Когда они находят женщину, у которой течет говно из ушей, они понимают, что стали добычей для страшного зверя. Вместе они должны объединиться и бороться против сверхъестественного существа, чтобы выжить.

  • Мировая премьера: 17 сентября 2014


Перевод: anton1
Озвучивание: Хихикающий доктор

Качество видео: HDRip

Продолжительность: 01:23:00
Формат: AVI
Видео: XviD, 712x400, 23.976 fps, 889 kbps
Аудио #1: русский, любительский одноголосый закадровый, MP3 2.0, 44.1 kHz, 128 kbps
Аудио #2: английский, оригинал, AC3 2.0, 48 kHz, 192 kbps

Код:

Общее
Полное имя                               : he.Darkness.Rage.and.the.Fury.2014.Xixidok.avi
Формат                                   : AVI
Формат/Информация                        : Audio Video Interleave
Размер файла                             : 726 Мбайт
Продолжительность                        : 1 ч. 23 м.
Общий поток                              : 1223 Кбит/сек
Программа кодирования                    : VirtualDubMod 1.5.10.3 (build 2550/release)
Библиотека кодирования                   : VirtualDubMod build 2550/release

Видео
Идентификатор                            : 0
Формат                                   : MPEG-4 Visual
Профиль формата                          : Advanced Simple@L5
Параметр BVOP формата                    : 2
Параметр QPel формата                    : Нет
Параметр GMC формата                     : Без точки перехода
Параметр матрицы формата                 : Default (H.263)
Идентификатор кодека                     : XVID
Идентификатор кодека/Подсказка           : XviD
Продолжительность                        : 1 ч. 23 м.
Битрейт                                  : 889 Кбит/сек
Ширина                                   : 712 пикселей
Высота                                   : 400 пикселей
Соотношение сторон                       : 16:9
Частота кадров                           : 23,976 кадра/сек
Цветовое пространство                    : YUV
Субдискретизация насыщенности            : 4:2:0
Битовая глубина                          : 8 бит
Тип развёртки                            : Прогрессивная
Метод сжатия                             : С потерями
Бит/(Пиксели*Кадры)                      : 0.130
Размер потока                            : 528 Мбайт (73%)
Библиотека кодирования                   : XviD 1.2.1 (UTC 2008-12-04)

Аудио #1
Идентификатор                            : 1
Формат                                   : MPEG Audio
Версия формата                           : Version 1
Профиль формата                          : Layer 3
Режим                                    : Joint stereo
Расширение режима                        : MS Stereo
Идентификатор кодека                     : 55
Идентификатор кодека/Подсказка           : MP3
Продолжительность                        : 1 ч. 23 м.
Вид битрейта                             : Постоянный
Битрейт                                  : 128 Кбит/сек
Каналы                                   : 2 канала
Частота                                  : 44,1 КГц
Метод сжатия                             : С потерями
Размер потока                            : 76,0 Мбайт (10%)
Выравнивание                             : Разделение по промежуткам
Продолжительность промежутка             : 42  мс. (1,00 видеокадр)
Время предзагрузки промежутка            : 500  мс.
Библиотека кодирования                   : LAME3.98.4

Аудио #2
Идентификатор                            : 2
Формат                                   : MPEG Audio
Версия формата                           : Version 1
Профиль формата                          : Layer 3
Режим                                    : Joint stereo
Расширение режима                        : MS Stereo
Идентификатор кодека                     : 55
Идентификатор кодека/Подсказка           : MP3
Продолжительность                        : 1 ч. 23 м.
Вид битрейта                             : Постоянный
Битрейт                                  : 192 Кбит/сек
Каналы                                   : 2 канала
Частота                                  : 48,0 КГц
Метод сжатия                             : С потерями
Размер потока                            : 114 Мбайт (16%)
Выравнивание                             : Соединение по промежуткам
Продолжительность промежутка             : 42  мс. (1,00 видеокадр)
Время предзагрузки промежутка            : 504  мс.
Библиотека кодирования                   : LAME3.99.5
picpicpicpicpic
Для увеличения картинки щелкните мышкой по превью

Этот торрент недоступен для скачивания без регистрации, однако доступен по публичной magnet-ссылке (источники с публичных трекеров). Перед использованием ссылки прочтите, пожалуйста Пользовательское соглашение, а также как можно дольше оставайтесь на раздаче! Для того, чтобы скачать сам торрент-файл (который видит больше источников), а также для того, чтобы поблагодарить релизера, вам необходимо зарегистрироваться. Если регистрироваться лень - вы можете также попробовать скачать релиз по нашим партнерским ссылкам ниже.

[underverse.su].t56214.torrent
Трекер: Зарегистрирован   [ 21.07.2015 22:39 ]  

Статус: проверено (by makkol at 08.08.2015 15:03)
Поблагодарили: пока никто не поблагодарил...
Тип торрента: публичный - доступные источники с открытых трекеров: 
Размер: 726 MB (занимает 0,16 DVDR, для записи нужно 1 болванка DVDR/RW)
 
 
Похожие темы
Форум Тема Автор Торрент Отв. Посл. сооб.
Зарубежное кино [HDDVDRip / BDRip / WEB-DL / HDTV 1080/720р] Тьма, свирепость и ярость / 13-й блок / The Darkness, Rage and the Fury / The 13th Unit (Тэофилус Лэйси) [2014 г., ужасы, фантастика, триллер, BDRip 1080p] VO + Original + Subs makkol
0 | 0

1 | 428

8

28.07.2015 11:20


Яндекс.Метрика powered by Sphinx


В Н И М А Н И Е
Сайт не распространяет и не хранит электронные версии произведений, а лишь бесплатно и без коммерческой выгоды (не требуя взамен платы,
SMS и т.д.) предоставляет доступ к создаваемому пользователями каталогу ссылок на торрент-файлы, которые содержат только списки хеш-сумм.
Убедительная просьба с жалобами обращаться напрямую к пользователю, разместившему торрент файл.

Вверх