Loading...
Error

Лондонские каникулы / A Royal Night Out (Джулиан Джаррольд) [2015 г., драма, мелодрама, триллер, WEB-DLRip] Dub (Line)

Статистика раздачи
Размер:  1,44 GB   |    Зарегистрирован:  1 год 4 месяца   |    Скачан:  20 раз

Полного источника не было: 9 месяцев

Сидов:  0  |  0 KB/s  ]   Личеров:  0  |  0 KB/s  ]

* - сиды/пиры с внешних источников

   
 
Автор Сообщение

makkol Пол:Муж

21-Июл-2015 13:01

Лондонские каникулы / A Royal Night Out


Год выпуска: 2015
Жанр: драма, мелодрама, триллер
Производство: Великобритания [Ecosse Films, Filmgate Films]
Режиссер: Джулиан Джаррольд
В ролях: Сара Гадон, Эмили Уотсон, Джек Рейнор, Руперт Эверетт, Бел Паули, Роджер Аллам, Джек Гордон, Анастасия Харрольд, Джек Лэски, Рут Шин
Сюжет фильма:
Во время Дня Победы в Европе в 1945 году принцессе Маргарет и ее сестре Элизабет разрешают покинуть пределы Букингемского дворца на ночь, там они сталкиваются с романтическими приключениями и опасностью…

  • Мировая премьера: 14 мая 2015
  • Российская премьера: 18 июня 2015


Качество видео: WEB-DLRip

Продолжительность: 01:32:50
Формат: AVI
Видео: XviD, 720x304 (2.35:1), 24.000 fps, 1830 kbps
Аудио: русский, дублированный (чистый звук), AC3 2.0, 48 kHz, 384 kbps

Код:

Общее
Полное имя                               : Londonskie.Kanikulii.avi
Формат                                   : AVI
Формат/Информация                        : Audio Video Interleave
Размер файла                             : 1,44 Гбайт
Продолжительность                        : 1 ч. 32 м.
Общий поток                              : 2223 Кбит/сек
Программа кодирования                    : VirtualDubMod 1.5.10.2 (build 2540/release)
Библиотека кодирования                   : VirtualDubMod build 2540/release

Видео
Идентификатор                            : 0
Формат                                   : MPEG-4 Visual
Профиль формата                          : Advanced Simple@L5
Параметр BVOP формата                    : 2
Параметр QPel формата                    : Нет
Параметр GMC формата                     : Без точки перехода
Параметр матрицы формата                 : Default (MPEG)
Идентификатор кодека                     : XVID
Идентификатор кодека/Подсказка           : XviD
Продолжительность                        : 1 ч. 32 м.
Битрейт                                  : 1830 Кбит/сек
Ширина                                   : 720 пикселей
Высота                                   : 304 пикселя
Соотношение сторон                       : 2,35:1
Частота кадров                           : 24,000 кадра/сек
Цветовое пространство                    : YUV
Субдискретизация насыщенности            : 4:2:0
Битовая глубина                          : 8 бит
Тип развёртки                            : Прогрессивная
Метод сжатия                             : С потерями
Бит/(Пиксели*Кадры)                      : 0.348
Размер потока                            : 1,19 Гбайт (82%)
Библиотека кодирования                   : XviD 1.2.1 (UTC 2008-12-04)

Аудио
Идентификатор                            : 1
Формат                                   : AC-3
Формат/Информация                        : Audio Coding 3
Расширение режима                        : CM (complete main)
Параметр Endianness формата              : Big
Идентификатор кодека                     : 2000
Продолжительность                        : 1 ч. 32 м.
Вид битрейта                             : Постоянный
Битрейт                                  : 384 Кбит/сек
Каналы                                   : 2 канала
Расположение каналов                     : Front: L R
Частота                                  : 48,0 КГц
Битовая глубина                          : 16 бит
Метод сжатия                             : С потерями
Размер потока                            : 255 Мбайт (17%)
Выравнивание                             : Разделение по промежуткам
Продолжительность промежутка             : 42  мс. (1,00 видеокадр)
Время предзагрузки промежутка            : 500  мс.
picpicpicpicpic
Для увеличения картинки щелкните мышкой по превью

Этот торрент недоступен для скачивания без регистрации, однако доступен по публичной magnet-ссылке (источники с публичных трекеров). Перед использованием ссылки прочтите, пожалуйста Пользовательское соглашение, а также как можно дольше оставайтесь на раздаче! Для того, чтобы скачать сам торрент-файл (который видит больше источников), а также для того, чтобы поблагодарить релизера, вам необходимо зарегистрироваться. Если регистрироваться лень - вы можете также попробовать скачать релиз по нашим партнерским ссылкам ниже.

[underverse.su].t56207.torrent
Трекер: Зарегистрирован   [ 21.07.2015 13:01 ]  

Статус: T временная (by nemos at 21.07.2015 15:49)
Поблагодарили: пока никто не поблагодарил...
Тип торрента: публичный - доступные источники с открытых трекеров: 
Размер: 1,44 GB (занимает 0,33 DVDR, для записи нужно 1 болванка DVDR/RW)
 
 
Похожие темы
Форум Тема Автор Торрент Отв. Посл. сооб.
T Зарубежное кино [DVDRip, Low-Res HDRip, и т.д.] Лондонские каникулы / A Royal Night Out (Джулиан Джаррольд / Julian Jarrold) [2015 г., драма, мелодрама, триллер, BDRip-AVC] Dub (iTunes) + Sub (Eng) 90ytr90
7 | 1

0 | 286

1

20.11.2016 08:09

T Зарубежное кино [DVDRip, Low-Res HDRip, и т.д.] Лондонские каникулы / A Royal Night Out (Джулиан Джаррольд / Julian Jarrold) [2015 г., драма, мелодрама, триллер, HDRip] Dub (iTunes) 90ytr90
17 | 1

0 | 213

3

20.11.2016 08:05

T Зарубежное кино [HDDVDRip / BDRip / WEB-DL / HDTV 1080/720р] Лондонские каникулы / A Royal Night Out (Джулиан Джаррольд / Julian Jarrold) [2015 г., драма, мелодрама, триллер, BDRip 1080p] Dub (iTunes) + Original (Eng) + Sub (Eng) 90ytr90
4 | 1

0 | 184

2

20.11.2016 08:21

T Зарубежное кино [HDDVDRip / BDRip / WEB-DL / HDTV 1080/720р] Лондонские каникулы / A Royal Night Out (Джулиан Джаррольд / Julian Jarrold) [2015 г., драма, мелодрама, триллер, BDRip 720p] Dub (iTunes) + Original (Eng) + Sub (Eng) 90ytr90
9 | 2

0 | 170

2

20.11.2016 08:17

Зарубежное кино [HDDVDRip / BDRip / WEB-DL / HDTV 1080/720р] Лондонские каникулы / A Royal Night Out (Джулиан Джаррольд) [2015 г., драма, мелодрама, триллер, WEB-DL 1080p] Dub makkol
3 | 0

0 | 7353

13

23.07.2015 15:27


Яндекс.Метрика powered by Sphinx


В Н И М А Н И Е
Сайт не распространяет и не хранит электронные версии произведений, а лишь бесплатно и без коммерческой выгоды (не требуя взамен платы,
SMS и т.д.) предоставляет доступ к создаваемому пользователями каталогу ссылок на торрент-файлы, которые содержат только списки хеш-сумм.
Убедительная просьба с жалобами обращаться напрямую к пользователю, разместившему торрент файл.

Вверх