Loading...
Error

Неудачники / Лучшие из худших / Underdog Kids (Филлип Ри) [2015 г., боевик, семейный, WEB-DLRip] VO

Статистика раздачи
Размер:  1,37 GB   |    Зарегистрирован:  1 год 4 месяца   |    Скачан:  26 раз

Полного источника не было: 4 месяца 22 дня

Сидов:  0  |  0 KB/s  ]   Личеров:  0  |  0 KB/s  ]

* - сиды/пиры с внешних источников

   
 
Автор Сообщение

makkol Пол:Муж

21-Июл-2015 11:58

Неудачники / Лучшие из худших / Underdog Kids
«Никогда не сдавайся!»


Год выпуска: 2015
Жанр: боевик, семейный
Производство: США [Itsy Bitsy Film]
Режиссер: Филлип Ри
В ролях: Филлип Ри, Бо Бриджес, Мирелли Тейлор, Том Арнольд, Макс Гэйл, Эллиа Инглиш, Лорен Боулз, Адам Иригойен, Грег Гранберг, Тед МакГинли
Сюжет фильма:
Дети из бедного квартала города готовы сразиться с соседствующей юниорской командой по карате из Беверли Хиллс...

  • Мировая премьера: 7 июля 2015


Перевод и озвучивание: Paul Bunyan

Качество видео: WEB-DLRip

Продолжительность: 01:34:23
Формат: AVI
Видео: XviD, 720x400 (16:9), 23.976 fps, 1809 kbps
Аудио: русский, любительский одноголосый закадровый, AC3 5.1, 48 kHz, 256 kbps

Код:

General
Complete name : Luchshie.iz.hudshih.2015.L1.WEB-DLRip.avi
Format : AVI
Format/Info : Audio Video Interleave
File size : 1.37 GiB
Duration : 1h 34mn
Overall bit rate : 2 075 Kbps
Writing application : VirtualDubMod 1.5.10.3 | www.virtualdub-fr.org || (build 2550/release)
Writing library : VirtualDubMod build 2550/release

Video
ID : 0
Format : MPEG-4 Visual
Format profile : Advanced Simple@L5
Format settings, BVOP : 1
Format settings, QPel : No
Format settings, GMC : No warppoints
Format settings, Matrix : Custom
Codec ID : XVID
Codec ID/Hint : XviD
Duration : 1h 34mn
Bit rate : 1 809 Kbps
Width : 720 pixels
Height : 400 pixels
Display aspect ratio : 16:9
Frame rate : 23.976 fps
Color space : YUV
Chroma subsampling : 4:2:0
Bit depth : 8 bits
Scan type : Progressive
Compression mode : Lossy
Bits/(Pixel*Frame) : 0.262
Stream size : 1.19 GiB (87%)
Writing library : XviD 73

Audio
ID : 1
Format : AC-3
Format/Info : Audio Coding 3
Mode extension : CM (complete main)
Codec ID : 2000
Duration : 1h 34mn
Bit rate mode : Constant
Bit rate : 256 Kbps
Channel(s) : 6 channels
Channel positions : Front: L C R, Side: L R, LFE
Sampling rate : 48.0 KHz
Bit depth : 16 bits
Compression mode : Lossy
Stream size : 173 MiB (12%)
Alignment : Split accross interleaves
Interleave, duration : 42 ms (1.00 video frame)
Interleave, preload duration : 500 ms
picpicpicpicpic
Для увеличения картинки щелкните мышкой по превью

Этот торрент недоступен для скачивания без регистрации, однако доступен по публичной magnet-ссылке (источники с публичных трекеров). Перед использованием ссылки прочтите, пожалуйста Пользовательское соглашение, а также как можно дольше оставайтесь на раздаче! Для того, чтобы скачать сам торрент-файл (который видит больше источников), а также для того, чтобы поблагодарить релизера, вам необходимо зарегистрироваться. Если регистрироваться лень - вы можете также попробовать скачать релиз по нашим партнерским ссылкам ниже.

[underverse.su].t56203.torrent
Трекер: Зарегистрирован   [ 21.07.2015 11:58 ]  

Статус: проверено (by nemos at 21.07.2015 15:58)
Поблагодарили: пока никто не поблагодарил...
Тип торрента: публичный - доступные источники с открытых трекеров: 
Размер: 1,37 GB (занимает 0,31 DVDR, для записи нужно 1 болванка DVDR/RW)
 
 
Похожие темы
Форум Тема Автор Торрент Отв. Посл. сооб.
Зарубежное кино [DVDRip, Low-Res HDRip, и т.д.] Неудачники / Micmacs (Жан-Пьер Жёне) [2009 г., комедия, криминал,DVDRip] LAMA
1 | 0

0 | 647

8

16.12.2010 15:42

Зарубежное кино [HDDVDRip / BDRip / WEB-DL / HDTV 1080/720р] Неудачники / Лучшие из худших / Underdog Kids (Филлип Ри) [2015 г., боевик, семейный, WEB-DL 720p] VO + Original + Subs (Eng) makkol
6 | 0

0 | 817

15

21.07.2015 12:11


Яндекс.Метрика powered by Sphinx


В Н И М А Н И Е
Сайт не распространяет и не хранит электронные версии произведений, а лишь бесплатно и без коммерческой выгоды (не требуя взамен платы,
SMS и т.д.) предоставляет доступ к создаваемому пользователями каталогу ссылок на торрент-файлы, которые содержат только списки хеш-сумм.
Убедительная просьба с жалобами обращаться напрямую к пользователю, разместившему торрент файл.

Вверх