Loading...
Error

Всё включено / All Inclusive (Хелла Йооф) [2014 г., драма, комедия, HDRip] VO

Статистика раздачи
Размер:  1,37 GB   |    Зарегистрирован:  1 год 4 месяца   |    Скачан:  25 раз

Полного источника не было: 1 день 10 часов

Сидов:  0  |  0 KB/s  ]   Личеров:  0  |  0 KB/s  ]

* - сиды/пиры с внешних источников

   
 
Автор Сообщение

makkol Пол:Муж

21-Июл-2015 11:25

Всё включено / All Inclusive


Год выпуска: 2014
Жанр: драма, комедия
Производство: Дания [Happy Ending Film]
Режиссер: Хелла Йооф
В ролях: Микаэль Бирккьяр, Расмус Бьерг, Карстен Бьорнлунн, Даника Куркик, Диогу Инфанте, Бодиль Ёргенсон, Миа Лине, Кристиан Мосбек, Anna Neye Poulsen, Maria Rossing
Сюжет фильма:
Главная героиня решает отметить свое 60-летие поездкой на Мальту. Компанию ей составляют две дочери, которые давно уже не общаются и ненавидят друг друга. Одна из них — серьезная женщина и мать троих детей, другая — упорно не желающая взрослеть рокерша, ведущая альтернативный образ жизни... Во время средиземноморского турне участницы этого забавного трио будут переживать романтические приключения и выяснять отношения друг с другом...

  • Мировая премьера: 25 декабря 2014


Перевод: М.Васильев
Озвучивание: Vaxywod

Качество видео: HDRip

Продолжительность: 01:29:32
Формат: AVI
Видео: XviD, 720x304 (2.35:1), 24.000 fps, 1984 kbps
Аудио: русский, любительский одноголосый закадровый, AC3 2.0, 48 kHz, 192 kbps

Код:

Общее
Полное имя                               : All.Inclusive.2014.L1.HDRip.1400MB.avi
Формат                                   : AVI
Формат/Информация                        : Audio Video Interleave
Размер файла                             : 1,37 Гбайт
Продолжительность                        : 1 ч. 29 м.
Общий поток                              : 2185 Кбит/сек
Программа кодирования                    : VirtualDubMod 1.5.10.3 | www.virtualdub-fr.org || (build 2550/release)
Библиотека кодирования                   : VirtualDubMod build 2550/release

Видео
Идентификатор                            : 0
Формат                                   : MPEG-4 Visual
Профиль формата                          : Advanced Simple@L5
Параметр BVOP формата                    : 2
Параметр QPel формата                    : Нет
Параметр GMC формата                     : Без точки перехода
Параметр матрицы формата                 : Default (MPEG)
Идентификатор кодека                     : XVID
Идентификатор кодека/Подсказка           : XviD
Продолжительность                        : 1 ч. 29 м.
Битрейт                                  : 1984 Кбит/сек
Ширина                                   : 720 пикселей
Высота                                   : 304 пикселя
Соотношение сторон                       : 2,35:1
Частота кадров                           : 24,000 кадра/сек
Цветовое пространство                    : YUV
Субдискретизация насыщенности            : 4:2:0
Битовая глубина                          : 8 бит
Тип развёртки                            : Прогрессивная
Метод сжатия                             : С потерями
Бит/(Пиксели*Кадры)                      : 0.378
Размер потока                            : 1,24 Гбайт (91%)
Библиотека кодирования                   : XviD 1.2.1 (UTC 2008-12-04)

Аудио
Идентификатор                            : 1
Формат                                   : AC-3
Формат/Информация                        : Audio Coding 3
Расширение режима                        : CM (complete main)
Параметр Endianness формата              : Big
Идентификатор кодека                     : 2000
Продолжительность                        : 1 ч. 29 м.
Вид битрейта                             : Постоянный
Битрейт                                  : 192 Кбит/сек
Каналы                                   : 2 канала
Расположение каналов                     : Front: L R
Частота                                  : 48,0 КГц
Битовая глубина                          : 16 бит
Метод сжатия                             : С потерями
Размер потока                            : 123 Мбайт (9%)
Выравнивание                             : Разделение по промежуткам
Продолжительность промежутка             : 42  мс. (1,00 видеокадр)
Время предзагрузки промежутка            : 500  мс.
picpicpicpicpic
Для увеличения картинки щелкните мышкой по превью

Этот торрент недоступен для скачивания без регистрации, однако доступен по публичной magnet-ссылке (источники с публичных трекеров). Перед использованием ссылки прочтите, пожалуйста Пользовательское соглашение, а также как можно дольше оставайтесь на раздаче! Для того, чтобы скачать сам торрент-файл (который видит больше источников), а также для того, чтобы поблагодарить релизера, вам необходимо зарегистрироваться. Если регистрироваться лень - вы можете также попробовать скачать релиз по нашим партнерским ссылкам ниже.

[underverse.su].t56201.torrent
Трекер: Зарегистрирован   [ 21.07.2015 11:25 ]  

Статус: проверено (by nemos at 21.07.2015 16:09)
Поблагодарили: 1 человек
Тип торрента: публичный - доступные источники с открытых трекеров: 
Размер: 1,37 GB (занимает 0,31 DVDR, для записи нужно 1 болванка DVDR/RW)
 
 
Похожие темы
Форум Тема Автор Торрент Отв. Посл. сооб.
Зарубежное кино [DVDRip, Low-Res HDRip, и т.д.] Всё включено: Каникулы в Греции / Sune i Grekland - All Inclusive (Ханнес Холм) [2012 г., комедия, семейный, HDRip] MVO 90ytr90
0 | 0

0 | 2333

23

09.12.2013 15:20

Наше кино [DVDRip, Low-Res HDRip, и т.д.] Всё включено 2 (Эдуард Радзюкевич) [2013 г., комедия, HDRip] Паукан
2 | 0

0 | 2172

92

16.12.2013 07:40

T Зарубежное кино [HDDVDRip / BDRip / WEB-DL / HDTV 1080/720р] Всё включено / All Inclusive (Хелла Йооф) [2014 г., драма, комедия, BDRip 720p] VO + Original + Subs (Eng) makkol
6 | 0

0 | 709

18

21.07.2015 11:36

Зарубежное кино [HDDVDRip / BDRip / WEB-DL / HDTV 1080/720р] Всё включено: Каникулы в Греции / Sune i Grekland - All Inclusive (Ханнес Холм) [2012 г., комедия, семейный, BDRip 720p] MVO + Original 90ytr90
19 | 2

0 | 1930

25

10.12.2013 16:00

Наше кино [DVD / HDDVD / BD / Remux] Всё включено 2 / (Эдуард Радзюкевич) [2013, комедия, Blu-ray Disc 1080p] uzi2009
3 | 0

0 | 622

4

09.04.2014 10:47

Наше кино [HDDVDRip / BDRip / WEB-DL / HDTV 1080/720р] Всё включено 2 (Эдуард Радзюкевич) [2013 г., комедия, BDRip 720p] 90ytr90
0 | 0

0 | 528

16

16.12.2013 14:54


Яндекс.Метрика powered by Sphinx


В Н И М А Н И Е
Сайт не распространяет и не хранит электронные версии произведений, а лишь бесплатно и без коммерческой выгоды (не требуя взамен платы,
SMS и т.д.) предоставляет доступ к создаваемому пользователями каталогу ссылок на торрент-файлы, которые содержат только списки хеш-сумм.
Убедительная просьба с жалобами обращаться напрямую к пользователю, разместившему торрент файл.

Вверх