Loading...
Error

Полуночное солнце / Мой друг Нанук / Midnight Sun / Il Mio Amico Nanuk (Роджер Споттисвуд, Брэндо Куличи) [2014 г., приключения, DVDRip] VO

Статистика раздачи
Размер:  1,42 GB   |    Зарегистрирован:  1 год 4 месяца   |    Скачан:  19 раз

Полного источника не было: 3 месяца 10 дней

Сидов:  0  |  0 KB/s  ]   Личеров:  0  |  0 KB/s  ]

* - сиды/пиры с внешних источников

   
 
Автор Сообщение

makkol Пол:Муж

20-Июл-2015 23:48

Полуночное солнце / Мой друг Нанук / Midnight Sun / Il Mio Amico Nanuk


Год выпуска: 2014
Жанр: приключения
Производство: Канада , Италия [Hyde Park Entertainment, Imagenation Abu Dhabi FZ, Media Max Productions]
Режиссер: Роджер Споттисвуд, Брэндо Куличи
В ролях: Дакота Гойо, Горан Вишнич, Бриджет Мойнэхэн, Кендра Тимминс, Мэтт Коннорс
Сюжет фильма:
Люк живет на крайнем севере и проводит все свободное время, рассекая на снегоходе по бескрайним снежным просторам. Однажды он находит медвежонка, заблудившегося в городе и решает помочь ему вернуться в родную среду обитания. Мальчик и медвежонок отправляются в полное опасностей путешествие. Им предстоит преодолеть сотни километров по ледяной пустыне, пережить страшную бурю, познакомиться с дружелюбными инуитами...

  • Мировая премьера: 21 сентября 2014


Перевод: М. Васильев
Озвучивание: Павел Морозов aka PashaUp

Качество видео: DVDRip

Продолжительность: 01:28:13
Формат: AVI
Видео: XviD, 720x304 (2.35:1), 25.000 fps, 1839 kbps
Аудио: русский, любительский одноголосый закадровый, AC3 5.1, 48 kHz, 448 kbps

Код:

Общее
Полное имя                               : МойДругНанук(2014).avi
Формат                                   : AVI
Формат/Информация                        : Audio Video Interleave
Размер файла                             : 1,42 Гбайт
Продолжительность                        : 1 ч. 28 м.
Общий поток                              : 2296 Кбит/сек
Программа кодирования                    : VirtualDubMod 1.5.10.2 (build 2540/release)
Библиотека кодирования                   : VirtualDubMod build 2540/release

Видео
Идентификатор                            : 0
Формат                                   : MPEG-4 Visual
Профиль формата                          : Advanced Simple@L5
Параметр BVOP формата                    : Нет
Параметр QPel формата                    : Нет
Параметр GMC формата                     : Без точки перехода
Параметр матрицы формата                 : Выборочная
Идентификатор кодека                     : XVID
Идентификатор кодека/Подсказка           : XviD
Продолжительность                        : 1 ч. 28 м.
Битрейт                                  : 1839 Кбит/сек
Ширина                                   : 720 пикселей
Высота                                   : 304 пикселя
Соотношение сторон                       : 2,35:1
Частота кадров                           : 25,000 кадров/сек
Цветовое пространство                    : YUV
Субдискретизация насыщенности            : 4:2:0
Битовая глубина                          : 8 бит
Тип развёртки                            : Прогрессивная
Метод сжатия                             : С потерями
Бит/(Пиксели*Кадры)                      : 0.336
Размер потока                            : 1,13 Гбайт (80%)
Библиотека кодирования                   : XviD 64

Аудио
Идентификатор                            : 1
Формат                                   : AC-3
Формат/Информация                        : Audio Coding 3
Расширение режима                        : CM (complete main)
Параметр Endianness формата              : Big
Идентификатор кодека                     : 2000
Продолжительность                        : 1 ч. 28 м.
Вид битрейта                             : Постоянный
Битрейт                                  : 448 Кбит/сек
Каналы                                   : 6 каналов
Расположение каналов                     : Front: L C R, Side: L R, LFE
Частота                                  : 48,0 КГц
Битовая глубина                          : 16 бит
Метод сжатия                             : С потерями
Размер потока                            : 283 Мбайт (20%)
Выравнивание                             : Разделение по промежуткам
Продолжительность промежутка             : 40  мс. (1,00 видеокадр)
Время предзагрузки промежутка            : 500  мс.
Язык                                     : Italiano
picpicpicpicpic
Для увеличения картинки щелкните мышкой по превью

Этот торрент недоступен для скачивания без регистрации, однако доступен по публичной magnet-ссылке (источники с публичных трекеров). Перед использованием ссылки прочтите, пожалуйста Пользовательское соглашение, а также как можно дольше оставайтесь на раздаче! Для того, чтобы скачать сам торрент-файл (который видит больше источников), а также для того, чтобы поблагодарить релизера, вам необходимо зарегистрироваться. Если регистрироваться лень - вы можете также попробовать скачать релиз по нашим партнерским ссылкам ниже.

[underverse.su].t56196.torrent
Трекер: Зарегистрирован   [ 20.07.2015 23:48 ]  

Статус: проверено (by nemos at 21.07.2015 16:17)
Поблагодарили: 3 человека
Тип торрента: публичный - доступные источники с открытых трекеров: 
Размер: 1,42 GB (занимает 0,32 DVDR, для записи нужно 1 болванка DVDR/RW)
 
 
Похожие темы
Форум Тема Автор Торрент Отв. Посл. сооб.
Зарубежное кино [DVDRip, Low-Res HDRip, и т.д.] Полуночное солнце / Midnight Sun (Роджер Споттисвуд / Roger Spottiswoode, Брандо Куиличи / Brando Quilici) [2014 г., приключения, семейный, WEB-DLRip] VO (PashaUp) + 2xOriginal (Spa, Eng) + Sub (Rus,... 90ytr90
10 | 4

0 | 331

2

10.11.2016 16:21


Яндекс.Метрика powered by Sphinx


В Н И М А Н И Е
Сайт не распространяет и не хранит электронные версии произведений, а лишь бесплатно и без коммерческой выгоды (не требуя взамен платы,
SMS и т.д.) предоставляет доступ к создаваемому пользователями каталогу ссылок на торрент-файлы, которые содержат только списки хеш-сумм.
Убедительная просьба с жалобами обращаться напрямую к пользователю, разместившему торрент файл.

Вверх