Loading...
Error

Последняя запись 2 / Видеосъёмка 2 / Ragini MMS 2 (Бхушан Патель) [2014 г., ужасы, триллер, мелодрама, HDRip] MVO

Статистика раздачи
Размер:  1,37 GB   |    Зарегистрирован:  1 год 4 месяца   |    Скачан:  10 раз

Полного источника не было: 11 месяцев

Сидов:  0  |  0 KB/s  ]   Личеров:  0  |  0 KB/s  ]

* - сиды/пиры с внешних источников

   
 
Автор Сообщение

makkol Пол:Муж

20-Июл-2015 23:19

Последняя запись 2 / Видеосъёмка 2 / Ragini MMS 2


Год выпуска: 2014
Жанр: ужасы, триллер, мелодрама
Производство: Индия [ALT Entertainment, Balaji Motion Pictures]
Режиссер: Бхушан Патель
В ролях: Санни Леоне, Парвин Дабас, Кайназ Мотивала, Анита Хассандани, Дивья Датта, Саахил Прем, Сандхья Мридул, Сония Мехра, Прафул Салунке
Сюжет фильма:
После трагической смерти своего молодого человека, Рагини оказывается запертой в психиатрической больнице. Тем временем, успешный режиссёр Рокс, вдохновлённый историей Рагини, решает снять о ней фильм. Вместе со съёмочной командой они отправляются в тот самый особняк, где запрещен въезд после заката и до рассвета...

  • Мировая премьера: 21 марта 2014


Качество видео: HDRip

Продолжительность: 01:59:22
Формат: AVI
Видео: XviD, 688x288, 24.000 fps, 1502 kbps
Аудио: русский, профессиональный многоголосый закадровый (SDI Media), MP3 2.0, 48 kHz, 128 kbps

Код:

General
Complete name                    : Videosjemka.2.2014.XviD.HDRip-Dego.avi
Format                           : AVI
Format/Info                      : Audio Video Interleave
File size                        : 1.37 GiB
Duration                         : 1h 59mn
Overall bit rate                 : 1 640 Kbps
Writing application              : VirtualDubMod 1.5.10.2 (build 2540/release)
Writing library                  : VirtualDubMod build 2540/release

Video
ID                               : 0
Format                           : MPEG-4 Visual
Format profile                   : AdvancedSimple@L5
Format settings, BVOP            : Yes
Format settings, QPel            : No
Format settings, GMC             : No warppoints
Format settings, Matrix          : Custom
Codec ID                         : XVID
Codec ID/Hint                    : XviD
Duration                         : 1h 59mn
Bit rate                         : 1 502 Kbps
Width                            : 688 pixels
Height                           : 288 pixels
Display aspect ratio             : 2.35
Frame rate                       : 24.000 fps
Resolution                       : 24 bits
Colorimetry                      : 4:2:0
Scan type                        : Progressive
Bits/(Pixel*Frame)               : 0.316
Stream size                      : 1.25 GiB (92%)
Writing library                  : XviD 1.2.1 (UTC 2008-12-04)

Audio
ID                               : 1
Format                           : MPEG Audio
Format version                   : Version 1
Format profile                   : Layer 3
Codec ID                         : 55
Codec ID/Hint                    : MP3
Duration                         : 1h 59mn
Bit rate mode                    : Constant
Bit rate                         : 128 Kbps
Channel(s)                       : 2 channels
Sampling rate                    : 48.0 KHz
Resolution                       : 16 bits
Stream size                      : 109 MiB (8%)
Alignment                        : Aligned on interleaves
Interleave, duration             : 42 ms (1.00 video frame)
Interleave, preload duration     : 504 ms
Релиз: Dego

picpicpicpicpic
Для увеличения картинки щелкните мышкой по превью

Этот торрент недоступен для скачивания без регистрации, однако доступен по публичной magnet-ссылке (источники с публичных трекеров). Перед использованием ссылки прочтите, пожалуйста Пользовательское соглашение, а также как можно дольше оставайтесь на раздаче! Для того, чтобы скачать сам торрент-файл (который видит больше источников), а также для того, чтобы поблагодарить релизера, вам необходимо зарегистрироваться. Если регистрироваться лень - вы можете также попробовать скачать релиз по нашим партнерским ссылкам ниже.

[underverse.su].t56195.torrent
Трекер: Зарегистрирован   [ 20.07.2015 23:19 ]  

Статус: проверено (by Паукан at 29.07.2015 09:30)
Поблагодарили: 1 человек
Тип торрента: публичный - доступные источники с открытых трекеров: 
Размер: 1,37 GB (занимает 0,31 DVDR, для записи нужно 1 болванка DVDR/RW)
 
 
Похожие темы
Форум Тема Автор Торрент Отв. Посл. сооб.
T Зарубежное кино [DVDRip, Low-Res HDRip, и т.д.] Последняя любовь мистера Моргана / Mr. Morgan's Last Love (Сандра Неттельбек / Sandra Nettelbeck) [2013 г., драма, комедия, BDRip-AVC] Dub (чистый звук) + DVO (Чистохина и Чепусов) + Original (Eng)... 90ytr90
2 | 0

0 | 444

11

23.04.2014 18:16

Зарубежное кино [DVDRip, Low-Res HDRip, и т.д.] Последняя надежда человечества / Against the Dark (Ричард Крудо) [2009 г., ужасы, фантастика, боевик, триллер, DVDRip] Boromir9
0 | 1

1 | 2074

3

19.12.2010 11:58

Зарубежное кино [DVDRip, Low-Res HDRip, и т.д.] Последняя любовь на Земле / Perfect Sense (Дэвид МакКензи) [2011 г., фантастика, драма, мелодрама, HDRip] MVO RG NewCinema
11 | 4

0 | 1243

41

13.11.2012 18:15

Зарубежное кино [DVDRip, Low-Res HDRip, и т.д.] Последняя искра жизни / La chispa de la vida (Алекс де ла Иглесиа) [2011, драма, DVDRip] MVO + Original Spa Garnett
13 | 0

0 | 861

4

10.12.2012 05:23

Зарубежное кино [DVDRip, Low-Res HDRip, и т.д.] Последняя искра жизни / La chispa de la vida (Алекс де ла Иглесиа) [2011, драма, DVDRip] MVO Garnett
30 | 0

1 | 1012

4

12.12.2012 18:06

Зарубежное кино [DVDRip, Low-Res HDRip, и т.д.] Последняя любовь на Земле / Perfect Sense (Дэвид МакКензи) [2011 г., фантастика, драма, мелодрама , BDRip-AVC] MVO Чертёнок
8 | 0

0 | 1364

27

02.02.2013 21:41

Зарубежное кино [DVDRip, Low-Res HDRip, и т.д.] Последняя карета / Последний вагон / The Last Wagon / L'ultima carrozzella (Марио Маттоли) [1943 г., Комедия, DVDRip] VO + Original Чертёнок
0 | 1

0 | 1294

1

23.09.2013 09:54

Зарубежное кино [DVDRip, Low-Res HDRip, и т.д.] Последняя любовь мистера Моргана / Mr. Morgan's Last Love (Сандра Неттельбек) [2013 г., драма, комедия, HDRip] DVO (CasStudio) 90ytr90
1 | 0

1 | 2074

37

22.12.2013 02:15

Зарубежное кино [DVDRip, Low-Res HDRip, и т.д.] Последняя любовь мистера Моргана / Mr. Morgan's Last Love (Сандра Неттельбек) [2013 г., драма, комедия, HDRip] DVO (CasStudio) 90ytr90
0 | 1

0 | 564

15

22.12.2013 06:46

T Зарубежное кино [DVDRip, Low-Res HDRip, и т.д.] Последняя любовь мистера Моргана / Mr. Morgan's Last Love (Сандра Неттельбек / Sandra Nettelbeck) [2013 г., драма, комедия, HDRip] Dub (чистый звук) + Original (Eng) 90ytr90
11 | 0

1 | 561

14

03.07.2014 21:53


Яндекс.Метрика powered by Sphinx


В Н И М А Н И Е
Сайт не распространяет и не хранит электронные версии произведений, а лишь бесплатно и без коммерческой выгоды (не требуя взамен платы,
SMS и т.д.) предоставляет доступ к создаваемому пользователями каталогу ссылок на торрент-файлы, которые содержат только списки хеш-сумм.
Убедительная просьба с жалобами обращаться напрямую к пользователю, разместившему торрент файл.

Вверх