Loading...
Error

Чужая страна / Strangerland (Ким Фаррант / Kim Farrant) [2015 г., Триллер, драма, HDRip] VO + Original

Статистика раздачи
Размер:  2,05 GB   |    Зарегистрирован:  1 год 4 месяца   |    Скачан:  20 раз

Полного источника не было: 14 дней

Сидов:  0  |  0 KB/s  ]   Личеров:  0  |  0 KB/s  ]

* - сиды/пиры с внешних источников

   
 
Автор Сообщение

IlyaSaint Пол:Муж

20-Июл-2015 16:26

Чужая страна / Strangerland


Год выпуска: 2015
Жанр: Триллер, драма
Страна: Австралия, Ирландия
Режиссер: Ким Фаррант / Kim Farrant
В ролях: Николь Кидман, Хьюго Уивинг, Джозеф Файнс, Шон Кинэн, Мэддисон Браун, Николас Хэмилтон, Мейн Уайат, Бенедикт Харди, Мартин Дингл Уолл, Тейлор Фергюсон
Сюжет фильма:
Сюжет фильма о том, как у семейной пары Кэтрин и Мэтью Паркеров исчезли в австралийской пустыне двое детей-подростков, и родители пытаются их найти всеми немыслимыми способами. А вот с чем они столкнутся, пытаясь вернуть своих детей? Возможно их съели динго? Или какая-то тайна тянется из их детства?

Качество видео: HDRip

Продолжительность: 01:51:46
Формат: avi
Видео: XviD, 720x304, 1717 kbps
Аудио #1: русский, одноголосый закадровый [любительский, RAIM], AC3 5.1, 448 kbps
Аудио #2: английский, оригинал, AC3 5.1, 448 kbps

Код:

Format                           : AVI
Format/Info                      : Audio Video Interleave
Format profile                   : OpenDML
File size                        : 2.05 GiB
Duration                         : 1h 51mn
Overall bit rate                 : 2 631 Kbps
Writing application              : VirtualDubMod 1.5.10.2 (build 2540/release)
Writing library                  : VirtualDubMod build 2540/release

Video
ID                               : 0
Format                           : MPEG-4 Visual
Format profile                   : Streaming Video@L1
Format settings, BVOP            : Yes
Format settings, QPel            : No
Format settings, GMC             : No warppoints
Format settings, Matrix          : Default (MPEG)
Codec ID                         : XVID
Codec ID/Hint                    : XviD
Duration                         : 1h 51mn
Bit rate                         : 1 717 Kbps
Width                            : 720 pixels
Height                           : 304 pixels
Display aspect ratio             : 2.35
Frame rate                       : 23.976 fps
Resolution                       : 24 bits
Colorimetry                      : 4:2:0
Scan type                        : Progressive
Bits/(Pixel*Frame)               : 0.327
Stream size                      : 1.34 GiB (65%)
Writing library                  : XviD 1.2.1 (UTC 2008-12-04)

Audio #1
ID                               : 1
Format                           : AC-3
Format/Info                      : Audio Coding 3
Codec ID                         : 2000
Duration                         : 1h 51mn
Bit rate mode                    : Constant
Bit rate                         : 448 Kbps
Channel(s)                       : 6 channels
Channel positions                : Front: L C R, Surround: L R, LFE
Sampling rate                    : 48.0 KHz
Stream size                      : 358 MiB (17%)
Alignment                        : Split accross interleaves
Interleave, duration             : 42 ms (1.00 video frame)
Interleave, preload duration     : 500 ms

Audio #2
ID                               : 2
Format                           : AC-3
Format/Info                      : Audio Coding 3
Codec ID                         : 2000
Duration                         : 1h 51mn
Bit rate mode                    : Constant
Bit rate                         : 448 Kbps
Channel(s)                       : 6 channels
Channel positions                : Front: L C R, Surround: L R, LFE
Sampling rate                    : 48.0 KHz
Stream size                      : 358 MiB (17%)
Alignment                        : Split accross interleaves
Interleave, duration             : 42 ms (1.00 video frame)
Interleave, preload duration     : 500 ms
picpicpicpicpic
Для увеличения картинки щелкните мышкой по превью

Этот торрент недоступен для скачивания без регистрации, однако доступен по публичной magnet-ссылке (источники с публичных трекеров). Перед использованием ссылки прочтите, пожалуйста Пользовательское соглашение, а также как можно дольше оставайтесь на раздаче! Для того, чтобы скачать сам торрент-файл (который видит больше источников), а также для того, чтобы поблагодарить релизера, вам необходимо зарегистрироваться. Если регистрироваться лень - вы можете также попробовать скачать релиз по нашим партнерским ссылкам ниже.

[underverse.su].t56191.torrent
Трекер: Зарегистрирован   [ 20.07.2015 16:26 ]  

Статус: проверено (by makkol at 02.05.2016 22:46)
Поблагодарили: пока никто не поблагодарил...
Тип торрента: публичный - доступные источники с открытых трекеров: 
Размер: 2,05 GB (занимает 0,47 DVDR, для записи нужно 1 болванка DVDR/RW)
 
 
Похожие темы
Форум Тема Автор Торрент Отв. Посл. сооб.
T Зарубежное кино [DVDRip, Low-Res HDRip, и т.д.] Чужая страна / Strangerland (Ким Фаррант) [2015 г., триллер, драма, HDRip] MVO makkol
1 | 0

0 | 402

10

02.05.2016 22:27

T Зарубежное кино [HDDVDRip / BDRip / WEB-DL / HDTV 1080/720р] Чужая страна / Strangerland (Ким Фаррант) [2015 г., триллер, драма, BDRip 720p] MVO + Original makkol
7 | 0

0 | 456

3

02.05.2016 22:34

T Зарубежное кино [HDDVDRip / BDRip / WEB-DL / HDTV 1080/720р] Чужая страна / Strangerland (Ким Фаррант) [2015 г., триллер, драма, BDRip 1080p] MVO + Original makkol
27 | 1

0 | 459

11

02.05.2016 22:40



Последний раз редактировалось: IlyaSaint (07.08.2015 21:56), всего редактировалось 1 раз

makkol Пол:Муж

02-Авг-2015 10:49

 !  - Уточните качество видео, судя по разрешению это HDRip, но никак не 720p
- Судя по кинопоиску и IMDb, страна производитель не США
- По данным разведки, продолжительность фильма 01:51:46
- Добавьте автора озвучки (можно отдельно, можно в Аудио #1 после [любительский]). Подсказываю, это - RAIM
- И где информация об Аудио #2 ?

IlyaSaint Пол:Муж

07-Авг-2015 21:56

Всю инфу программа ваша же выдала
Страну поправлю

makkol Пол:Муж

07-Авг-2015 23:32

Если вы имеете в виду программу UV-Info, она выдает только технические параметры файла, а качество видео смотрите там, откуда фильм берёте. Вот сейчас без труда нашёл такую-же раздачу в другом месте, качество - обыкновенное HD. У вас написано BDRip 720p, это должно было-бы быть разрешение видео около 1280х720.
Ну и дальше, кто озвучивал не добавили, я же прямо подсказал, кто это, просто скопировать и вставить...
В фильме две аудиодорожки, загляните в медиаинфо, но про Аудио #2 в описании по прежнему ни слова.
Ну сколько можно бодаться из-за каждого пункта.

02-Май-2016 22:47

Топик был перенесен из форума Зарубежное кино [HDDVDRip / BDRip / WEB-DL / HDTV 1080/720р] в форум Зарубежное кино [DVDRip, Low-Res HDRip, и т.д.]


makkol
 

Яндекс.Метрика powered by Sphinx


В Н И М А Н И Е
Сайт не распространяет и не хранит электронные версии произведений, а лишь бесплатно и без коммерческой выгоды (не требуя взамен платы,
SMS и т.д.) предоставляет доступ к создаваемому пользователями каталогу ссылок на торрент-файлы, которые содержат только списки хеш-сумм.
Убедительная просьба с жалобами обращаться напрямую к пользователю, разместившему торрент файл.

Вверх