Loading...
Error

Уцелевшая / Выжившая / Survivor (Джеймс МакТиг) [2015 г., боевик, триллер, BDRip] DVO + Original

Статистика раздачи
Размер:  1,42 GB   |    Зарегистрирован:  1 год 4 месяца   |    Скачан:  47 раз

Полного источника не было: 7 дней

Сидов:  0  |  0 KB/s  ]   Личеров:  0  |  0 KB/s  ]

* - сиды/пиры с внешних источников

   
 
Автор Сообщение

makkol Пол:Муж

20-Июл-2015 09:21

Уцелевшая / Выжившая / Survivor
«His next target is now hunting him»


Год выпуска: 2015
Жанр: боевик, триллер
Производство: США , Великобритания [Nu Image Films, Millennium Films, Winkler Films]
Режиссер: Джеймс МакТиг
В ролях: Милла Йовович, Пирс Броснан, Дилан МакДермотт, Анджела Бассетт, Джеймс Д’Арси, Антония Томас, Фрэнсис де ла Тур, Роберт Форстер, Роджер Рис, Кори Джонсон
Сюжет фильма:
История закручена вокруг сотрудницы Госдепартамента США, которая была отправлена своим начальством в американское посольство в Лондоне, чтобы предотвратить проникновение в страну террористов. Однако все пошло не так, как планировалось: неожиданно героиня сама становится одной из главных подозреваемых. За преступления, в которых ее обвиняют - смертная казнь, поэтому она пускается в бега, чтобы доказать свою невиновность, а также предотвратить террористическую атаку на Нью-Йорк в канун Рождества.

  • Мировая премьера: 21 мая 2015


Качество видео: BDRip

Продолжительность: 01:36:27
Формат: AVI
Видео: XviD, 720x304 (2.35:1), 23.976 fps, 1710 kbps
Аудио #1: русский, любительский двухголосый закадровый (ColdFilm), MP3 2.0, 44.1 kHz, 192 kbps
Аудио #2: английский, оригинал, MP3 2.0, 44.1 kHz, 192 kbps

Код:

Формат                                   : AVI
Формат/Информация                        : Audio Video Interleave
Размер файла                             : 1,42 Гбайт
Продолжительность                        : 1 ч. 36 м.
Общий поток                              : 2109 Кбит/сек
Название фильма                          : Ucelevshayja.2015.P2.BDRip_MegaPeer_by_Twi7ter.avi
Режиссёр                                 : Twi7ter
Жанр                                     : Action/Thriller
Программа кодирования                    : VirtualDubMod 1.5.10.3 (build 2550/release)
Формат оригинала/Имя                     : Movie

Видео
Идентификатор                            : 0
Формат                                   : MPEG-4 Visual
Профиль формата                          : Advanced Simple@L5
Параметр BVOP формата                    : 2
Параметр QPel формата                    : Нет
Параметр GMC формата                     : Без точки перехода
Параметр матрицы формата                 : Выборочная
Идентификатор кодека                     : XVID
Идентификатор кодека/Подсказка           : XviD
Продолжительность                        : 1 ч. 36 м.
Битрейт                                  : 1710 Кбит/сек
Ширина                                   : 720 пикселей
Высота                                   : 304 пикселя
Соотношение сторон                       : 2,35:1
Частота кадров                           : 23,976 кадра/сек
Цветовое пространство                    : YUV
Субдискретизация насыщенности            : 4:2:0
Битовая глубина                          : 8 бит
Тип развёртки                            : Прогрессивная
Метод сжатия                             : С потерями
Бит/(Пиксели*Кадры)                      : 0.326
Размер потока                            : 1,15 Гбайт (81%)
Библиотека кодирования                   : XviD 73

Аудио #1
Идентификатор                            : 1
Формат                                   : MPEG Audio
Версия формата                           : Version 1
Профиль формата                          : Layer 3
Идентификатор кодека                     : 55
Идентификатор кодека/Подсказка           : MP3
Продолжительность                        : 1 ч. 36 м.
Вид битрейта                             : Постоянный
Битрейт                                  : 192 Кбит/сек
Каналы                                   : 2 канала
Частота                                  : 44,1 КГц
Метод сжатия                             : С потерями
Задержка видео                           : 1 мс.
Размер потока                            : 132 Мбайт (9%)
Выравнивание                             : Разделение по промежуткам
Продолжительность промежутка             : 42  мс. (1,00 видеокадр)
Время предзагрузки промежутка            : 500  мс.

Аудио #2
Идентификатор                            : 2
Формат                                   : MPEG Audio
Версия формата                           : Version 1
Профиль формата                          : Layer 3
Идентификатор кодека                     : 55
Идентификатор кодека/Подсказка           : MP3
Продолжительность                        : 1 ч. 36 м.
Вид битрейта                             : Постоянный
Битрейт                                  : 192 Кбит/сек
Каналы                                   : 2 канала
Частота                                  : 44,1 КГц
Метод сжатия                             : С потерями
Размер потока                            : 132 Мбайт (9%)
Выравнивание                             : Разделение по промежуткам
Продолжительность промежутка             : 42  мс. (1,00 видеокадр)
Время предзагрузки промежутка            : 500  мс.
Релиз от: &

picpicpicpicpic
Для увеличения картинки щелкните мышкой по превью

Этот торрент недоступен для скачивания без регистрации, однако доступен по публичной magnet-ссылке (источники с публичных трекеров). Перед использованием ссылки прочтите, пожалуйста Пользовательское соглашение, а также как можно дольше оставайтесь на раздаче! Для того, чтобы скачать сам торрент-файл (который видит больше источников), а также для того, чтобы поблагодарить релизера, вам необходимо зарегистрироваться. Если регистрироваться лень - вы можете также попробовать скачать релиз по нашим партнерским ссылкам ниже.

[underverse.su].t56182.torrent
Трекер: Зарегистрирован   [ 20.07.2015 09:21 ]  

Статус: проверено (by Паукан at 29.07.2015 09:31)
Поблагодарили: 1 человек
Тип торрента: публичный - доступные источники с открытых трекеров: 
Размер: 1,42 GB (занимает 0,32 DVDR, для записи нужно 1 болванка DVDR/RW)
 
 
Похожие темы
Форум Тема Автор Торрент Отв. Посл. сооб.
Зарубежное кино [DVDRip, Low-Res HDRip, и т.д.] Уцелевшая / Survivor (Джеймс МакТиг) [2015 г., боевик, триллер, HDRip] VO [xixidok] Паукан
4 | 0

0 | 1167

59

05.06.2015 15:54

Зарубежное кино [HDDVDRip / BDRip / WEB-DL / HDTV 1080/720р] Уцелевшая / Survivor (Джеймс МакТиг) [2015 г., боевик, триллер, BDRip 1080p] VO [xixidok] + Original Паукан
5 | 0

0 | 1442

54

05.06.2015 15:57

Зарубежное кино [HDDVDRip / BDRip / WEB-DL / HDTV 1080/720р] Уцелевшая / Выжившая / Survivor (Джеймс МакТиг) [2015 г., боевик, триллер, BDRip 1080p] DVO + MVO + VO + Original + Subs (Eng) makkol
16 | 0

0 | 859

24

20.07.2015 09:41


Яндекс.Метрика powered by Sphinx


В Н И М А Н И Е
Сайт не распространяет и не хранит электронные версии произведений, а лишь бесплатно и без коммерческой выгоды (не требуя взамен платы,
SMS и т.д.) предоставляет доступ к создаваемому пользователями каталогу ссылок на торрент-файлы, которые содержат только списки хеш-сумм.
Убедительная просьба с жалобами обращаться напрямую к пользователю, разместившему торрент файл.

Вверх