Loading...
Error

Хрустальный камень / Crystalstone (Антонио Пелаез) [1987 г., приключения, детский, семейный, DVDRip] MVO

Статистика раздачи
Размер:  695 MB   |    Зарегистрирован:  1 год 9 месяцев   |    Скачан:  1 раз

Полного источника не было: 1 год 5 месяцев

Сидов:  0  |  0 KB/s  ]   Личеров:  0  |  0 KB/s  ]

* - сиды/пиры с внешних источников

   
 
Автор Сообщение

makkol Пол:Муж

19-Июл-2015 14:24

Хрустальный камень / Crystalstone


Год выпуска: 1987
Жанр: приключения, детский, семейный
Производство: Испания , Великобритания , США [CCC of America, Crystalstone]
Режиссер: Антонио Пелаез
В ролях: Фрэнк Граймс, Камлеш Гупта, Лаура Гудвин, Эдвард Келсли, Сидни Бромли, Патриция Конти, Хелен Райан, Теренс Бэйлер, Энн Вэй, Бриджит Форсайт, Рут Кеттлвелл, Марио Де Баррос, Льюис Гордон
Сюжет фильма:
Брошенные отцом и оставшиеся сиротами после смерти матери, девятилетний Пабло и его маленькая сестра Мария отказываются быть отделенными друг от друга их тетей-опекуншей. Взяв в собой только крест, они отправляются в рискованное путешествие в поисках мистического драгоценного камня, который является ключом к счастью. В пути им предстоит пережить немало приключений, сразиться со страшным пиратом с металлическим крюком и подружиться с добрым Капитаном...

Качество видео: DVDRip

Продолжительность: 01:33:10
Формат: AVI
Видео: XviD, 592x320 (1,85:1), 23.976 fps, 906 kbps
Аудио: русский, профессиональный многоголосый закадровый, MP3 2.0, 48 kHz, 128 kbps

Код:

Общее
Полное имя                               : Hrustalnyj.kamen.1987.XviD.DVDRip.by.HeDgEhOt.avi
Формат                                   : AVI
Формат/Информация                        : Audio Video Interleave
Размер файла                             : 695 Мбайт
Продолжительность                        : 1 ч. 33 м.
Общий поток                              : 1043 Кбит/сек
Название фильма                          : Хрустальный камень / Crystalstone (1987)
Авторское право                          : HeDgEhOt®

Видео
Идентификатор                            : 0
Формат                                   : MPEG-4 Visual
Профиль формата                          : Simple@L3
Параметр BVOP формата                    : Нет
Параметр QPel формата                    : Нет
Параметр GMC формата                     : Без точки перехода
Параметр матрицы формата                 : Default (H.263)
Идентификатор кодека                     : XVID
Идентификатор кодека/Подсказка           : XviD
Продолжительность                        : 1 ч. 33 м.
Битрейт                                  : 906 Кбит/сек
Ширина                                   : 592 пикселя
Высота                                   : 320 пикселей
Соотношение сторон                       : 1,85:1
Частота кадров                           : 23,976 кадра/сек
Цветовое пространство                    : YUV
Субдискретизация насыщенности            : 4:2:0
Битовая глубина                          : 8 бит
Тип развёртки                            : Прогрессивная
Метод сжатия                             : С потерями
Бит/(Пиксели*Кадры)                      : 0.199
Размер потока                            : 604 Мбайт (87%)
Библиотека кодирования                   : XviD 1.2.0SMP (UTC 2006-01-08)

Аудио
Идентификатор                            : 1
Формат                                   : MPEG Audio
Версия формата                           : Version 1
Профиль формата                          : Layer 3
Режим                                    : Joint stereo
Расширение режима                        : MS Stereo
Идентификатор кодека                     : 55
Идентификатор кодека/Подсказка           : MP3
Продолжительность                        : 1 ч. 33 м.
Вид битрейта                             : Постоянный
Битрейт                                  : 128 Кбит/сек
Каналы                                   : 2 канала
Частота                                  : 48,0 КГц
Метод сжатия                             : С потерями
Размер потока                            : 85,3 Мбайт (12%)
Выравнивание                             : Соединение по промежуткам
Продолжительность промежутка             : 42  мс. (1,00 видеокадр)
Время предзагрузки промежутка            : 504  мс.
Язык                                     : Русский
picpicpicpicpic
Для увеличения картинки щелкните мышкой по превью

Этот торрент недоступен для скачивания без регистрации, однако доступен по публичной magnet-ссылке (источники с публичных трекеров). Перед использованием ссылки прочтите, пожалуйста Пользовательское соглашение, а также как можно дольше оставайтесь на раздаче! Для того, чтобы скачать сам торрент-файл (который видит больше источников), а также для того, чтобы поблагодарить релизера, вам необходимо зарегистрироваться. Если регистрироваться лень - вы можете также попробовать скачать релиз по нашим партнерским ссылкам ниже.

[underverse.su].t56152.torrent
Трекер: Зарегистрирован   [ 01.02.2016 12:33 ]  

Статус: проверено (by makkol at 01.02.2016 12:34)
Поблагодарили: 1 человек
Тип торрента: публичный - доступные источники с открытых трекеров: 
Размер: 695 MB (занимает 0,16 DVDR, для записи нужно 1 болванка DVDR/RW)
 
 
Похожие темы
Форум Тема Автор Торрент Отв. Посл. сооб.
Зарубежное кино [DVDRip, Low-Res HDRip, и т.д.] Хрустальные черепа / Crystal Skulls (Тодор Чапканов) [2014 г., фантастика, приключения, HDTVRip] MVO Паукан
2 | 0

11 | 2626

195

19.03.2015 18:21

# Зарубежное кино [DVDRip, Low-Res HDRip, и т.д.] Хрустальные черепа / Crystal Skulls (Тодор Чапканов) [2014 г., фантастика, приключения, DVDRip] MVO 90ytr90
26 | 1

0 | 421

4

10.02.2015 18:20

Зарубежное кино [DVDRip, Low-Res HDRip, и т.д.] Хрустальные черепа / Crystal Skulls (Тодор Чапканов) [2014 г., фантастика, приключения, HDRip] MVO + Original Паукан
1 | 0

1 | 1371

48

21.04.2015 20:03


Яндекс.Метрика powered by Sphinx


В Н И М А Н И Е
Сайт не распространяет и не хранит электронные версии произведений, а лишь бесплатно и без коммерческой выгоды (не требуя взамен платы,
SMS и т.д.) предоставляет доступ к создаваемому пользователями каталогу ссылок на торрент-файлы, которые содержат только списки хеш-сумм.
Убедительная просьба с жалобами обращаться напрямую к пользователю, разместившему торрент файл.

Вверх