Loading...
Error

Конгресс / The Congress (Ари Фольман) [2013 г., фантастика, мультфильм, драма, HDRip] Dub

Статистика раздачи
Размер:  1,46 GB   |    Зарегистрирован:  1 год 4 месяца   |    Скачан:  14 раз

Полного источника не было: 8 месяцев

Сидов:  0  |  0 KB/s  ]   Личеров:  0  |  0 KB/s  ]

* - сиды/пиры с внешних источников

   
 
Автор Сообщение

makkol Пол:Муж

19-Июл-2015 13:54

Конгресс / The Congress


Год выпуска: 2013
Жанр: фантастика, мультфильм, драма
Производство: Израиль , Германия , Польша , Люксембург , Франция , Бельгия [Pandora Filmproduktion GmbH, Opus Film]
Режиссер: Ари Фольман
В ролях: Робин Райт, Харви Кейтель, Джон Хэмм, Пол Джаматти, Коди Смит-МакФи, Дэнни Хьюстон, Сами Гэйл, Майкл Сталь-Дэвид, Майкл Лэндис, Сара Шахи
Сюжет фильма:
Снятый по мотивам романа Станислава Лема «Футурологический конгресс», этот фильм — необыкновенное сочетание анимации и художественного кино. Актриса со сложным нравом, столкнувшись с отсутствием ролей, соглашается на неожиданное решение проблемы: за внушительное вознаграждение она позволит сделать свою оцифрованную копию, которая будет играть за нее в фильмах. Спустя какое-то время технологический прогресс позволяет любому желающему получить любой виртуальный аватар, включая анимированную версию артистки, — и такой поворот событий уже вызывает в ней бурный протест.

  • Мировая премьера: 16 мая 2013
  • Российская премьера: 13 марта 2014


Качество видео: HDRip

Продолжительность: 01:57:38
Формат: AVI
Видео: XviD, 720x384 (1.85:1), 25.000 fps, 1380 kbps
Аудио: русский, дублированный (iTunes), AC3 5.1, 48 kHz, 384 kbps

Код:

Общее
Полное имя                               : The.Congress.2013.D.HDRip.1.46GB.avi
Формат                                   : AVI
Формат/Информация                        : Audio Video Interleave
Размер файла                             : 1,46 Гбайт
Продолжительность                        : 1 ч. 57 м.
Общий поток                              : 1774 Кбит/сек
Программа кодирования                    : VirtualDubMod 1.5.10.3 (build 2550/release)

Видео
Идентификатор                            : 0
Формат                                   : MPEG-4 Visual
Профиль формата                          : Advanced Simple@L5
Параметр BVOP формата                    : 2
Параметр QPel формата                    : Нет
Параметр GMC формата                     : Без точки перехода
Параметр матрицы формата                 : Default (MPEG)
Режим смешивания                         : Сжатый битовый поток
Идентификатор кодека                     : XVID
Идентификатор кодека/Подсказка           : XviD
Продолжительность                        : 1 ч. 57 м.
Битрейт                                  : 1380 Кбит/сек
Ширина                                   : 720 пикселей
Высота                                   : 384 пикселя
Соотношение сторон                       : 1,85:1
Частота кадров                           : 25,000 кадров/сек
Цветовое пространство                    : YUV
Субдискретизация насыщенности            : 4:2:0
Битовая глубина                          : 8 бит
Тип развёртки                            : Прогрессивная
Метод сжатия                             : С потерями
Бит/(Пиксели*Кадры)                      : 0.200
Размер потока                            : 1,13 Гбайт (78%)
Библиотека кодирования                   : XviD 73

Аудио
Идентификатор                            : 1
Формат                                   : AC-3
Формат/Информация                        : Audio Coding 3
Расширение режима                        : CM (complete main)
Параметр Endianness формата              : Big
Идентификатор кодека                     : 2000
Продолжительность                        : 1 ч. 57 м.
Вид битрейта                             : Постоянный
Битрейт                                  : 384 Кбит/сек
Каналы                                   : 6 каналов
Расположение каналов                     : Front: L C R, Side: L R, LFE
Частота                                  : 48,0 КГц
Битовая глубина                          : 16 бит
Метод сжатия                             : С потерями
Размер потока                            : 323 Мбайт (22%)
Выравнивание                             : Разделение по промежуткам
Продолжительность промежутка             : 40  мс. (1,00 видеокадр)
Время предзагрузки промежутка            : 500  мс.
picpicpicpicpic
Для увеличения картинки щелкните мышкой по превью

Этот торрент недоступен для скачивания без регистрации, однако доступен по публичной magnet-ссылке (источники с публичных трекеров). Перед использованием ссылки прочтите, пожалуйста Пользовательское соглашение, а также как можно дольше оставайтесь на раздаче! Для того, чтобы скачать сам торрент-файл (который видит больше источников), а также для того, чтобы поблагодарить релизера, вам необходимо зарегистрироваться. Если регистрироваться лень - вы можете также попробовать скачать релиз по нашим партнерским ссылкам ниже.

[underverse.su].t56151.torrent
Трекер: Зарегистрирован   [ 19.07.2015 13:54 ]  

Статус: T временная (by Паукан at 19.07.2015 22:38)
Поблагодарили: 1 человек
Тип торрента: публичный - доступные источники с открытых трекеров: 
Размер: 1,46 GB (занимает 1/3 DVDR, для записи нужно 1 болванка DVDR/RW)
 
 

Яндекс.Метрика powered by Sphinx


В Н И М А Н И Е
Сайт не распространяет и не хранит электронные версии произведений, а лишь бесплатно и без коммерческой выгоды (не требуя взамен платы,
SMS и т.д.) предоставляет доступ к создаваемому пользователями каталогу ссылок на торрент-файлы, которые содержат только списки хеш-сумм.
Убедительная просьба с жалобами обращаться напрямую к пользователю, разместившему торрент файл.

Вверх