Loading...
Error

Излечить страх / Лука. Святитель-хирург (Александр Пархоменко) [2013 г., исторический, биография, драма, WEB-Rip]

Статистика раздачи
Размер:  1,27 GB   |    Зарегистрирован:  1 год 4 месяца   |    Скачан:  40 раз

Полного источника не было: 7 часов

Сидов:  0  |  0 KB/s  ]   Личеров:  0  |  0 KB/s  ]

* - сиды/пиры с внешних источников

   
 
Автор Сообщение

makkol Пол:Муж

19-Июл-2015 13:24

Излечить страх / Лука. Святитель-хирург


Год выпуска: 2013
Жанр: исторический, биография, драма
Производство: Украина , Беларусь
Режиссер: Александр Пархоменко
В ролях: Виталий Безруков, Андрей Саминин, Екатерина Гусева, Виктория Малекторович, Алексей Шевченков, Александр Яцко, Владимир Гостюхин, Иван Мацкевич, Александр Числов
Сюжет фильма:
В основе сюжета картины лежит драматичная судьба великого хирурга и священнослужителя — В. Ф. Войно-Ясенецкого (Святителя Луки). Он мог выставлять свои картины в лучших галереях мира и пачкать руки лишь красками, а стал «мужицким врачом», архиепископом и жертвой политических репрессий. Талантливый врач, человек глубокой веры, он успешно врачевал и душу и тело людей; в самые безбожные времена не поступался своей совестью. Тысячи людей обязаны ему жизнью, но спасти единственную женщину, которую он любил больше жизни, так и не смог…

  • Мировая премьера: 11 октября 2013
  • Российская премьера: 30 апреля 2015


Качество видео: WEB-Rip

Продолжительность: 01:47:10
Формат: AVI
Видео: XviD, 720x304 (2.35:1), 25.000 fps, 1493 kbps
Аудио: русский, оригинал, AC3 2.0, 48 kHz, 192 kbps

Код:

Общее
Полное имя                               : Izlechit'.strah.2013.WEB-Rip.avi
Формат                                   : AVI
Формат/Информация                        : Audio Video Interleave
Размер файла                             : 1,27 Гбайт
Продолжительность                        : 1 ч. 47 м.
Общий поток                              : 1695 Кбит/сек
Программа кодирования                    : VirtualDubMod 1.5.10.3 | www.virtualdub-fr.org || (build 2550/release)
Библиотека кодирования                   : VirtualDubMod build 2550/release

Видео
Идентификатор                            : 0
Формат                                   : MPEG-4 Visual
Профиль формата                          : Advanced Simple@L5
Параметр BVOP формата                    : 1
Параметр QPel формата                    : Нет
Параметр GMC формата                     : Без точки перехода
Параметр матрицы формата                 : Default (MPEG)
Идентификатор кодека                     : XVID
Идентификатор кодека/Подсказка           : XviD
Продолжительность                        : 1 ч. 47 м.
Битрейт                                  : 1493 Кбит/сек
Ширина                                   : 720 пикселей
Высота                                   : 304 пикселя
Соотношение сторон                       : 2,35:1
Частота кадров                           : 25,000 кадров/сек
Цветовое пространство                    : YUV
Субдискретизация насыщенности            : 4:2:0
Битовая глубина                          : 8 бит
Тип развёртки                            : Прогрессивная
Метод сжатия                             : С потерями
Бит/(Пиксели*Кадры)                      : 0.261
Размер потока                            : 1,07 Гбайт (84%)
Библиотека кодирования                   : XviD 73

Аудио
Идентификатор                            : 1
Формат                                   : AC-3
Формат/Информация                        : Audio Coding 3
Расширение режима                        : CM (complete main)
Параметр Endianness формата              : Big
Идентификатор кодека                     : 2000
Продолжительность                        : 1 ч. 47 м.
Вид битрейта                             : Постоянный
Битрейт                                  : 192 Кбит/сек
Каналы                                   : 2 канала
Расположение каналов                     : Front: L R
Частота                                  : 48,0 КГц
Битовая глубина                          : 16 бит
Метод сжатия                             : С потерями
Размер потока                            : 147 Мбайт (11%)
Выравнивание                             : Разделение по промежуткам
picpicpicpicpic
Для увеличения картинки щелкните мышкой по превью

Этот торрент недоступен для скачивания без регистрации, однако доступен по публичной magnet-ссылке (источники с публичных трекеров). Перед использованием ссылки прочтите, пожалуйста Пользовательское соглашение, а также как можно дольше оставайтесь на раздаче! Для того, чтобы скачать сам торрент-файл (который видит больше источников), а также для того, чтобы поблагодарить релизера, вам необходимо зарегистрироваться. Если регистрироваться лень - вы можете также попробовать скачать релиз по нашим партнерским ссылкам ниже.

[underverse.su].t56150.torrent
Трекер: Зарегистрирован   [ 19.07.2015 13:24 ]  

Статус: проверено (by Паукан at 19.07.2015 22:38)
Поблагодарили: 2 человека
Тип торрента: публичный - доступные источники с открытых трекеров: 
Размер: 1,27 GB (занимает 0,29 DVDR, для записи нужно 1 болванка DVDR/RW)
 
 

Яндекс.Метрика powered by Sphinx


В Н И М А Н И Е
Сайт не распространяет и не хранит электронные версии произведений, а лишь бесплатно и без коммерческой выгоды (не требуя взамен платы,
SMS и т.д.) предоставляет доступ к создаваемому пользователями каталогу ссылок на торрент-файлы, которые содержат только списки хеш-сумм.
Убедительная просьба с жалобами обращаться напрямую к пользователю, разместившему торрент файл.

Вверх