Loading...
Error

Чужестранка /Сезон 1/1-16 (16) Outlander (Анна Ферстер, Брайан Келли, Метин Хусейн) [2014-2015г.г., Драма, фантастика, приключения, WEB-DLRip] MVO

Статистика раздачи
Размер:  12,71 GB   |    Зарегистрирован:  1 год 4 месяца   |    Скачан:  21 раз

Полного источника не было: 4 месяца 12 дней

Сидов:  0  |  0 KB/s  ]   Личеров:  0  |  0 KB/s  ]

* - сиды/пиры с внешних источников

   
 
Автор Сообщение

marunovgn 

19-Июл-2015 12:56

Чужестранка / Outlander


Год выпуска: 2014-2015
Жанр: Драма, фантастика, приключения
Страна: США , Великобритания
Режиссер: Анна Ферстер, Брайан Келли, Метин Хусейн
В ролях: Нелл Хадсон, Джон Хеффернан, Каитриона Бэлфи, Сэм Юэн, Грэм МакТавиш, Дункан Лакруа, Гари Льюис, Лотте Вербеек, Тобиаш Мензес, Грант О`Рурк, Стивен Уолтерс, Джеймс Флит, Трэйси Уилкинсон, Прентис Хэнкок, Лайам Карни, Стивен Кри, Каллум Митчелл
Сюжет фильма:
Клэр, работавшая медсестрой во время Второй мировой войны, случайно перемещается во времени и попадает в 1743 год. В этом мире, полном приключений, она знакомится с шотландским рыцарем Джейми. У героев завязывается страстный роман, несмотря на то, что сердце Клэр разрывается между двумя мужчинами — Джейми и ее мужем Фрэнком, который остался в другом времени.


Качество видео: WEB-DLRip

Продолжительность: 16 * ~ 01:00:00
Формат: AVI
Видео: XviD, 720x400, 1700 kbps, 23.976 fps
Аудио: русский, многоголосый закадровый [профессиональный], MP3 2.0, 128 kbps, 48 khz

Код:

D:\Чужестранка\Outlander.s01e01.WEB-DLRip.Rus.Eng.MediaClub.avi
   General
      Complete name : D:\Чужестранка\Outlander.s01e01.WEB-DLRip.Rus.Eng.MediaClub.avi
      Format : AVI
      Format/Info : Audio Video Interleave
      File size : 895 MiB
      Duration : 1h 3mn
      Overall bit rate : 1 972 Kbps
      Movie name : Outlander s01e01 - Англичанка
      Director : MediaClub
      Writing application : VirtualDubMod 1.5.10.2 (build 2540/release)
   Video #0
      ID : 0
      Format : MPEG-4 Visual
      Format profile : Advanced Simple@L5
      Format settings, BVOP : 2
      Format settings, QPel : No
      Format settings, GMC : No warppoints
      Format settings, Matrix : Default (MPEG)
      Codec ID : XVID
      Codec ID/Hint : XviD
      Duration : 1h 3mn
      Bit rate : 1 702 Kbps
      Width : 720 pixels
      Height : 400 pixels
      Display aspect ratio : 16:9
      Frame rate : 23.976 fps
      Color space : YUV
      Chroma subsampling : 4:2:0
      Bit depth : 8 bits
      Scan type : Progressive
      Compression mode : Lossy
      Bits/(Pixel*Frame) : 0.247
      Stream size : 773 MiB (86%)
      Writing library : XviD 1.2.1 (UTC 2008-12-04)
   Audio #1
      ID : 1
      Format : MPEG Audio
      Format version : Version 1
      Format profile : Layer 3
      Codec ID : 55
      Codec ID/Hint : MP3
      Duration : 1h 3mn
      Bit rate mode : Constant
      Bit rate : 128 Kbps
      Channel(s) : 2 channels
      Sampling rate : 48.0 KHz
      Compression mode : Lossy
      Stream size : 58.1 MiB (6%)
      Alignment : Aligned on interleaves
      Interleave, duration : 42 ms (1.00 video frame)
      Interleave, preload duration : 504 ms
   Audio #2
      ID : 2
      Format : MPEG Audio
      Format version : Version 1
      Format profile : Layer 3
      Mode : Joint stereo
      Mode extension : MS Stereo
      Codec ID : 55
      Codec ID/Hint : MP3
      Duration : 1h 3mn
      Bit rate mode : Constant
      Bit rate : 128 Kbps
      Channel(s) : 2 channels
      Sampling rate : 48.0 KHz
      Compression mode : Lossy
      Stream size : 58.1 MiB (6%)
      Alignment : Aligned on interleaves
      Interleave, duration : 42 ms (1.00 video frame)
      Interleave, preload duration : 504 ms
picpicpic
Для увеличения картинки щелкните мышкой по превью

Этот торрент недоступен для скачивания без регистрации, однако доступен по публичной magnet-ссылке (источники с публичных трекеров). Перед использованием ссылки прочтите, пожалуйста Пользовательское соглашение, а также как можно дольше оставайтесь на раздаче! Для того, чтобы скачать сам торрент-файл (который видит больше источников), а также для того, чтобы поблагодарить релизера, вам необходимо зарегистрироваться. Если регистрироваться лень - вы можете также попробовать скачать релиз по нашим партнерским ссылкам ниже.

[underverse.su].t56149.torrent
Трекер: Зарегистрирован   [ 19.07.2015 12:56 ]  

Статус: проверено (by Паукан at 19.07.2015 22:38)
Поблагодарили: 2 человека
Тип торрента: публичный - доступные источники с открытых трекеров: 
Размер: 12,71 GB (занимает 2,9 DVDR, для записи нужно 3 болванки DVDR/RW)
 
 

Яндекс.Метрика powered by Sphinx


В Н И М А Н И Е
Сайт не распространяет и не хранит электронные версии произведений, а лишь бесплатно и без коммерческой выгоды (не требуя взамен платы,
SMS и т.д.) предоставляет доступ к создаваемому пользователями каталогу ссылок на торрент-файлы, которые содержат только списки хеш-сумм.
Убедительная просьба с жалобами обращаться напрямую к пользователю, разместившему торрент файл.

Вверх