Loading...
Error

Хлоя и Тео / Chloe and Theo (Эзна Сэндс) [2015 г., драма, WEB-DLRip] DVO

Статистика раздачи
Размер:  1,46 GB   |    Зарегистрирован:  1 год 4 месяца   |    Скачан:  5 раз

Полного источника не было: 1 год 2 месяца

Сидов:  0  |  0 KB/s  ]   Личеров:  0  |  0 KB/s  ]

* - сиды/пиры с внешних источников

   
 
Автор Сообщение

makkol Пол:Муж

19-Июл-2015 12:09

Хлоя и Тео / Chloe and Theo
«Вместе они изменят мир»


Год выпуска: 2015
Жанр: драма
Производство: США , Канада [Arctica Films]
Режиссер: Эзна Сэндс
В ролях: Дакота Джонсон, Мира Сорвино, Лори Тан Чинн, Адриан Мартинес, Кристофер Бакус, Элизабет Масуччи, Ларри Кинг, Эшли Спрингер, Николь Зиоли, Джесика Андерсон, Брэндон Бойд, Андре Де Шилдс, Паркер Сноу, Мишель Кэмпбелл, Кевин Уитт, Куинси Чад Френсис, Хассан Мэннинг, Дион Сапп, Ларри Баллард, Эрик Орам, Майкл Морана, Рути Каминскас, Юджин Ипкарнак, Мелисса Джексон, Эрве Паниак, Джонатан Мэйсон, Энтони Куорлз, Джон Новак, Наталино Пиугаттук, Д.В. Вон Браун
Сюжет фильма:
Каждый день человечество своей деятельностью оказывает пагубное влияние на нашу планету. Но есть еще люди, которым не безразлична ее судьба. Одним из таких защитников природы оказывается простой эскимос Тео. Он своими глазами видит влияние глобального потепления и хочет изменить ситуацию. Для этого он решает отправиться в Нью-Йорк и встретится с лидерами государства. Тео хочет объяснить им всю опасность ситуации. В своем желании он не одинок. В мегаполисе Тео встречает молодую бездомную девушку Хлою, которая поддерживает его идею по спасению планеты. Но как далеко они смогут продвинуться к этой цели?

  • Мировая премьера: 15 апреля 2015


Перевод: Михаил Васильев
Озвучивание: Lord32x, Катюша

Качество видео: WEB-DLRip

Продолжительность: 01:21:44
Формат: AVI
Видео: XviD, 720x304 (2.35:1), 23.976 fps, 2171 kbps
Аудио: русский, любительский двухголосый закадровый (Lord32x Studio), AC3 5.1, 48 kHz, 384 kbps

Код:

General
Complete name : KinoRay.Chloe.and.Theo.2015.WEB-DLRip.1500MB.Lord32x.Studio.avi
Format : AVI
Format/Info : Audio Video Interleave
File size : 1.46 GiB
Duration : 1h 21mn
Overall bit rate : 2 565 Kbps
Writing application : VirtualDubMod 1.5.10.3 | www.virtualdub-fr.org || (build 2550/release)
Writing library : VirtualDubMod build 2550/release

Video
ID : 0
Format : MPEG-4 Visual
Format profile : Advanced Simple@L5
Format settings, BVOP : 1
Format settings, QPel : No
Format settings, GMC : No warppoints
Format settings, Matrix : Default (H.263)
Codec ID : XVID
Codec ID/Hint : XviD
Duration : 1h 21mn
Bit rate : 2 171 Kbps
Width : 720 pixels
Height : 304 pixels
Display aspect ratio : 2.35:1
Frame rate : 23.976 fps
Color space : YUV
Chroma subsampling : 4:2:0
Bit depth : 8 bits
Scan type : Progressive
Compression mode : Lossy
Bits/(Pixel*Frame) : 0.414
Stream size : 1.24 GiB (85%)
Writing library : XviD 1.2.1 (UTC 2008-12-04)

Audio
ID : 1
Format : AC-3
Format/Info : Audio Coding 3
Mode extension : CM (complete main)
Format settings, Endianness : Big
Codec ID : 2000
Duration : 1h 21mn
Bit rate mode : Constant
Bit rate : 384 Kbps
Channel(s) : 6 channels
Channel positions : Front: L C R, Side: L R, LFE
Sampling rate : 48.0 KHz
Bit depth : 16 bits
Compression mode : Lossy
Stream size : 224 MiB (15%)
Alignment : Split accross interleaves
Interleave, duration : 42 ms (1.00 video frame)
Interleave, preload duration : 500 ms
Релиз от:

picpicpicpicpic
Для увеличения картинки щелкните мышкой по превью

Этот торрент недоступен для скачивания без регистрации, однако доступен по публичной magnet-ссылке (источники с публичных трекеров). Перед использованием ссылки прочтите, пожалуйста Пользовательское соглашение, а также как можно дольше оставайтесь на раздаче! Для того, чтобы скачать сам торрент-файл (который видит больше источников), а также для того, чтобы поблагодарить релизера, вам необходимо зарегистрироваться. Если регистрироваться лень - вы можете также попробовать скачать релиз по нашим партнерским ссылкам ниже.

[underverse.su].t56147.torrent
Трекер: Зарегистрирован   [ 19.07.2015 12:09 ]  

Статус: проверено (by Паукан at 19.07.2015 22:39)
Поблагодарили: пока никто не поблагодарил...
Тип торрента: публичный - доступные источники с открытых трекеров: 
Размер: 1,46 GB (занимает 0,33 DVDR, для записи нужно 1 болванка DVDR/RW)
 
 
Похожие темы
Форум Тема Автор Торрент Отв. Посл. сооб.
Зарубежное кино [DVDRip, Low-Res HDRip, и т.д.] Хлоя и Тео / Chloe and Theo (Эзна Сэндс) [2015 г., драма, WEB-DLRip] MVO + Original makkol
20 | 0

0 | 339

8

02.09.2015 10:40

Зарубежное кино [HDDVDRip / BDRip / WEB-DL / HDTV 1080/720р] Хлоя и Тео / Chloe and Theo (Эзна Сэндс) [2015 г., драма, WEB-DL 720p] DVO + Original makkol
35 | 5

0 | 447

11

19.07.2015 12:23


Яндекс.Метрика powered by Sphinx


В Н И М А Н И Е
Сайт не распространяет и не хранит электронные версии произведений, а лишь бесплатно и без коммерческой выгоды (не требуя взамен платы,
SMS и т.д.) предоставляет доступ к создаваемому пользователями каталогу ссылок на торрент-файлы, которые содержат только списки хеш-сумм.
Убедительная просьба с жалобами обращаться напрямую к пользователю, разместившему торрент файл.

Вверх