Loading...
Error

Проделки близнецов / Dziewczyna I Chlopak (Станислав Лот) [1980 г., семейный, DVDRip] VO + Original + Subs

Статистика раздачи
Размер:  1,48 GB   |    Зарегистрирован:  1 год 4 месяца   |    Скачан:  4 раза

Полного источника не было: 1 год

Сидов:  0  |  0 KB/s  ]   Личеров:  0  |  0 KB/s  ]

* - сиды/пиры с внешних источников

   
 
Автор Сообщение

makkol Пол:Муж

19-Июл-2015 11:31

Проделки близнецов / Dziewczyna I Chlopak


Год выпуска: 1980
Жанр: семейный
Производство: Польша [Zespol Filmowy "Pryzmat"]
Режиссер: Станислав Лот
В ролях: Станислав Микульский, Барбара Солтысик, Анна Сенявская, Войцех Сенявский, Мария Клейдыш, Михал Суминьский, Тереза Липовская, Анна Милевская, Ежи Турек, Богуш Билевский, Дариуш Бискупский, Гжегож Студзинський, Томаш Яросиньский, Анна Егер, Эльжбета Домбровская, Мацек Родович, Томаш Карватко, Бартломей Лопиньский, Яцек Томборский, Изабелла Воловская, Изабелла Заремба, Павел Ванат
Сюжет фильма:
Живут в Варшаве брат и сестра – близнецы Томек и Тося. Тося хорошо учится, знает историю и вяжет спицами. Томек – отлично плавает, но разбойник еще тот. И вот в наказание за шалости, отец решает отправить сына на перевоспитание в деревню к его строгому дяде. Но вот незадача: Томек как раз сбежал из дому, когда за ним приехал посыльный. И Тосе пришлось ехать вместо брата, одевшись в мальчишеский костюм. А Томека, когда он вернулся, забирают в другую деревню, но уже в платье и в виде Тоси. Обман раскрывается только в финале фильма.

От себя: Данный фильм - это киноверсия одноимённого сериала 1977-1978 годов (6 серий по 45 мин) и по сути является его урезанным вариантом. Сам сериал можно найти в сети, но, к сожалению, он без перевода.

Качество видео: DVDRip

Продолжительность: 01:23:20
Формат: AVI
Видео: XviD, 720x544 (1.32:1), 25.000 fps, 2146 kbps
Аудио #1: русский, любительский одноголосый закадровый (viktor_2838), MP3 2.0, 48 kHz, 192 kbps
Аудио #2: польский, оригинал, MP3 2.0, 48 kHz, 192 kbps
Субтитры: русские внешние (Vsasha), SRT

Код:

Общее
Полное имя                               : Проделки близнецов.avi
Формат                                   : AVI
Формат/Информация                        : Audio Video Interleave
Размер файла                             : 1,48 Гбайт
Продолжительность                        : 1 ч. 23 м.
Общий поток                              : 2545 Кбит/сек
Программа кодирования                    : VirtualDubModRus 1.5.10.2 (build 2542/release)
Библиотека кодирования                   : VirtualDubMod build 2542/release

Видео
Идентификатор                            : 0
Формат                                   : MPEG-4 Visual
Профиль формата                          : Advanced Simple@L5
Параметр BVOP формата                    : 1
Параметр QPel формата                    : Нет
Параметр GMC формата                     : Без точки перехода
Параметр матрицы формата                 : Выборочная
Идентификатор кодека                     : XVID
Идентификатор кодека/Подсказка           : XviD
Продолжительность                        : 1 ч. 23 м.
Битрейт                                  : 2146 Кбит/сек
Ширина                                   : 720 пикселей
Высота                                   : 544 пикселя
Соотношение сторон                       : 4:3
Частота кадров                           : 25,000 кадров/сек
Цветовое пространство                    : YUV
Субдискретизация насыщенности            : 4:2:0
Битовая глубина                          : 8 бит
Тип развёртки                            : Прогрессивная
Метод сжатия                             : С потерями
Бит/(Пиксели*Кадры)                      : 0.219
Размер потока                            : 1,25 Гбайт (84%)
Библиотека кодирования                   : XviD 58

Аудио #1
Идентификатор                            : 1
Формат                                   : MPEG Audio
Версия формата                           : Version 1
Профиль формата                          : Layer 3
Режим                                    : Joint stereo
Расширение режима                        : MS Stereo
Идентификатор кодека                     : 55
Идентификатор кодека/Подсказка           : MP3
Продолжительность                        : 1 ч. 23 м.
Вид битрейта                             : Постоянный
Битрейт                                  : 192 Кбит/сек
Каналы                                   : 2 канала
Частота                                  : 48,0 КГц
Метод сжатия                             : С потерями
Размер потока                            : 114 Мбайт (8%)
Выравнивание                             : Соединение по промежуткам
Продолжительность промежутка             : 40  мс. (1,00 видеокадр)
Время предзагрузки промежутка            : 504  мс.
Библиотека кодирования                   : LAME3.98
Язык                                     : Polish

Аудио #2
Идентификатор                            : 2
Формат                                   : MPEG Audio
Версия формата                           : Version 1
Профиль формата                          : Layer 3
Режим                                    : Joint stereo
Расширение режима                        : MS Stereo
Идентификатор кодека                     : 55
Идентификатор кодека/Подсказка           : MP3
Продолжительность                        : 1 ч. 23 м.
Вид битрейта                             : Постоянный
Битрейт                                  : 192 Кбит/сек
Каналы                                   : 2 канала
Частота                                  : 48,0 КГц
Метод сжатия                             : С потерями
Размер потока                            : 114 Мбайт (8%)
Выравнивание                             : Соединение по промежуткам
Продолжительность промежутка             : 40  мс. (1,00 видеокадр)
Время предзагрузки промежутка            : 504  мс.
Библиотека кодирования                   : LAME3.97
Настройки программы                      : -m j -V 4 -q 2 -lowpass 18.6 -b 192
picpicpicpicpic
Для увеличения картинки щелкните мышкой по превью

Этот торрент недоступен для скачивания без регистрации, однако доступен по публичной magnet-ссылке (источники с публичных трекеров). Перед использованием ссылки прочтите, пожалуйста Пользовательское соглашение, а также как можно дольше оставайтесь на раздаче! Для того, чтобы скачать сам торрент-файл (который видит больше источников), а также для того, чтобы поблагодарить релизера, вам необходимо зарегистрироваться. Если регистрироваться лень - вы можете также попробовать скачать релиз по нашим партнерским ссылкам ниже.

[underverse.su].t56146.torrent
Трекер: Зарегистрирован   [ 19.07.2015 11:31 ]  

Статус: проверено (by Паукан at 19.07.2015 22:39)
Поблагодарили: пока никто не поблагодарил...
Тип торрента: публичный - доступные источники с открытых трекеров: 
Размер: 1,48 GB (занимает 0,34 DVDR, для записи нужно 1 болванка DVDR/RW)
 
 

Яндекс.Метрика powered by Sphinx


В Н И М А Н И Е
Сайт не распространяет и не хранит электронные версии произведений, а лишь бесплатно и без коммерческой выгоды (не требуя взамен платы,
SMS и т.д.) предоставляет доступ к создаваемому пользователями каталогу ссылок на торрент-файлы, которые содержат только списки хеш-сумм.
Убедительная просьба с жалобами обращаться напрямую к пользователю, разместившему торрент файл.

Вверх