Loading...
Error

(Smooth Jazz) Blake Aaron - Soul Stories (2015) [FLAC (Image+.CUE), Lossless]

Статистика раздачи
Размер:  400 MB   |    Зарегистрирован:  2 года 11 месяцев   |    Скачан:  13 раз

Полного источника не было: 12 дней

Сидов:  0  |  0 KB/s  ]   Личеров:  0  |  0 KB/s  ]

* - сиды/пиры с внешних источников

   
 
Автор Сообщение

Бишеп Пол:Муж

19-Июл-2015 04:13

Blake Aaron - Soul Stories

Жанр: Smooth Jazz
Год выпуска: 2015
Источник: CD
Производитель диска: Innervision Records - INN205
Аудиокодек: FLAC
Тип рипа: Image+.CUE
Битрейт аудио: lossless
Продолжительность: 00:51:40


Треклист:
01. Groove-O-Matic
02. Wes' Side Story
03. Sol Amor
04. Europa
05. You're The One For Me (Feat. Spencer Day)
06. Story Of The Blues
07. Sara Smile
08. Story Of My Life
09. You're My Miracle
10. Encantadora (Feat. Najee)

Код:

Exact Audio Copy V1.0 beta 3 from 29. August 2011

Отчёт EAC об извлечении, выполненном 9. июля 2015, 5:41

Blake Aaron / Soul Stories

Дисковод: PLEXTOR DVDR   PX-880SA   Adapter: 1  ID: 0

Режим чтения                 : Достоверность
Использование точного потока : Да
Отключение кэша аудио        : Да
Использование указателей C2  : Нет

Коррекция смещения при чтении                     : 6
Способность читать области Lead-in и Lead-out     : Нет
Заполнение пропущенных сэмплов тишиной            : Да
Удаление блоков с тишиной в начале и конце        : Нет
При вычислениях CRC использовались нулевые сэмплы : Да
Интерфейс                                         : Установленный внешний ASPI-интерфейс

Выходной формат          : Пользовательский кодировщик
Выбранный битрейт        : 1024 kBit/s
Качество                 : Высокий
Добавление ID3-тега      : Нет
Утилита сжатия           : C:\Program Files\Exact Audio Copy\FLAC\FLAC.EXE
Дополнительные параметры : -10 -V -T "ARTIST=%artist%" -T "ALBUM=%albumtitle%" -T "DATE=%year%" -T "GENRE=%genre%" -T "COMMENT=ripped by izia1956" %source%

TOC извлечённого CD

     Трек |   Старт  | Длительность | Начальный сектор | Конечный сектор
    ---------------------------------------------------------------------
       1  |  0:00.00 |    4:09.14   |           0      |      18688     
       2  |  4:09.14 |    4:42.16   |       18689      |      39854     
       3  |  8:51.30 |    4:57.72   |       39855      |      62201     
       4  | 13:49.27 |    7:15.14   |       62202      |      94840     
       5  | 21:04.41 |    4:29.27   |       94841      |     115042     
       6  | 25:33.68 |    3:55.65   |      115043      |     132732     
       7  | 29:29.58 |    6:24.50   |      132733      |     161582     
       8  | 35:54.33 |    6:17.12   |      161583      |     189869     
       9  | 42:11.45 |    4:36.23   |      189870      |     210592     
      10  | 46:47.68 |    4:52.58   |      210593      |     232550     

Характеристики диапазона извлечения и сообщения об ошибках

Выбранный диапазон

     Имя файла D:\BitComet\Blake Aaron - Soul Stories (2015)\Blake Aaron - Soul Stories.wav

     Пиковый уровень 100.0 %
     Скорость извлечения 2.9 X
     Качество диапазона 100.0 %
     CRC теста ACD7AEB7
     CRC копии ACD7AEB7
     Копирование... OK

Ошибок не произошло

 
AccurateRip: сводка
 
Трек  1  отсутствует в базе данных
Трек  2  отсутствует в базе данных
Трек  3  отсутствует в базе данных
Трек  4  отсутствует в базе данных
Трек  5  отсутствует в базе данных
Трек  6  отсутствует в базе данных
Трек  7  отсутствует в базе данных
Трек  8  отсутствует в базе данных
Трек  9  отсутствует в базе данных
Трек 10  отсутствует в базе данных
 
Ни одного трека нет в базе AccurateRip

Конец отчёта

==== Контрольная сумма отчёта CA37E3EAC762CB194CA1CD71DF2FBBEDFFC41B800D338A3F3BE068F1290EB6CA ====

Код:

REM GENRE "Smooth Jazz"
REM DATE 2015
REM DISCID 7C0C1C0A
REM COMMENT "ExactAudioCopy v1.0b3"
PERFORMER "Blake Aaron"
TITLE "Soul Stories"
FILE "Blake Aaron - Soul Stories.flac" WAVE
  TRACK 01 AUDIO
    TITLE "Groove-O-Matic "
    PERFORMER "Blake Aaron"
    INDEX 01 00:00:00
  TRACK 02 AUDIO
    TITLE "Wes Side Story"
    PERFORMER "Blake Aaron"
    INDEX 00 04:07:15
    INDEX 01 04:09:14
  TRACK 03 AUDIO
    TITLE "Sol Amor "
    PERFORMER "Blake Aaron"
    INDEX 00 08:49:31
    INDEX 01 08:51:30
  TRACK 04 AUDIO
    TITLE "Europa "
    PERFORMER "Blake Aaron"
    INDEX 00 13:47:28
    INDEX 01 13:49:27
  TRACK 05 AUDIO
    TITLE "You're the One for Me"
    PERFORMER "Blake Aaron"
    INDEX 00 21:02:42
    INDEX 01 21:04:41
  TRACK 06 AUDIO
    TITLE "Story of the Blues"
    PERFORMER "Blake Aaron"
    INDEX 00 25:31:69
    INDEX 01 25:33:68
  TRACK 07 AUDIO
    TITLE "Sara Smile"
    PERFORMER "Blake Aaron "
    INDEX 00 29:27:59
    INDEX 01 29:29:58
  TRACK 08 AUDIO
    TITLE "Story of My Life"
    PERFORMER "Blake Aaron"
    INDEX 00 35:52:34
    INDEX 01 35:54:33
  TRACK 09 AUDIO
    TITLE "You're My Miracle"
    PERFORMER "Blake Aaron"
    INDEX 00 42:09:46
    INDEX 01 42:11:45
  TRACK 10 AUDIO
    TITLE "Encantadora "
    PERFORMER "Blake Aaron"
    INDEX 00 46:45:69
    INDEX 01 46:47:68

Этот торрент недоступен для скачивания без регистрации, однако доступен по публичной magnet-ссылке (источники с публичных трекеров). Перед использованием ссылки прочтите, пожалуйста Пользовательское соглашение, а также как можно дольше оставайтесь на раздаче! Для того, чтобы скачать сам торрент-файл (который видит больше источников), а также для того, чтобы поблагодарить релизера, вам необходимо зарегистрироваться. Если регистрироваться лень - вы можете также попробовать скачать релиз по нашим партнерским ссылкам ниже. Кроме того, зарегистрированным пользователям не показывается всплывающая реклама при скачивании.

[underverse.su].t56126.torrent
Трекер: Зарегистрирован   [ 19.07.2015 04:13 ]  

Статус: проверено (by Бишеп at 19.07.2015 04:14)
Поблагодарили: 1 человек
Тип торрента: публичный - доступные источники с открытых трекеров: 
Размер: 400 MB (занимает 0,09 DVDR, для записи нужно 1 болванка DVDR/RW)
 
 
Похожие темы
Форум Тема Автор Торрент Отв. Посл. сооб.
Сборники (Smooth Jazz, Lounge, Easy Listening) VA - Smooth Cocktail, Taste Of Lounge, Vol. 1 (Relaxing Appetizer, ChillOut Session Mojito) (2015) [MP3, 320 kbps CBR] Evgenii82
0 | 0

0 | 1132

11

17.01.2015 13:04

Jazz (Smooth Jazz, Funk) U-Nam - C'est Le Funk (2014) [FLAC (Image+.CUE), Lossless] Бишеп
0 | 0

0 | 1494

22

31.10.2014 13:34

Jazz (Smooth Jazz, Soul) Grover Washington Jr. - Коллекция (1971-2000) [MP3, 128-320 kbps CBR] Боцман
0 | 0

0 | 219

2

17.03.2018 17:35

Jazz (Smooth Jazz) Threestyle (Feat. Magdalena Chovancova) - Smooth Ride (2017) [MP3, 320 kbps CBR] Darkferse
1 | 0

0 | 785

4

19.03.2017 10:24

Jazz (Smooth Jazz) Marcus Anderson - Limited Edition (2017) [MP3, 320 kbps CBR] Darkferse
2 | 1

0 | 730

7

19.03.2017 11:17

Jazz (Smooth Jazz) William Staggers - Late Blossom (2017) [MP3, 320 kbps CBR] Darkferse
1 | 0

0 | 570

5

06.04.2017 16:38

Jazz (Smooth Jazz) Daniel Chia - In The Moment (2017) [MP3, 320 kbps CBR] Darkferse
2 | 0

0 | 601

3

06.04.2017 16:42

Jazz (Smooth Jazz) Gabriel Bello - Steveland (2017) [MP3, 320 kbps CBR] Darkferse
2 | 0

0 | 701

4

23.05.2017 09:40

Jazz (Smooth Jazz) Dexter Tolson - A Different Kind Of Smooth (2017) [MP3, 320 kbps CBR] Darkferse
2 | 0

0 | 606

5

30.05.2017 16:28

Jazz (Smooth Jazz) Jean-Michel Cabrol Jazz 4tet - La Route Bleue (2017) [MP3, 320 kbps CBR] Darkferse
2 | 0

0 | 277

4

12.12.2017 12:59


Яндекс.Метрика powered by Sphinx


В Н И М А Н И Е
Сайт не распространяет и не хранит электронные версии произведений, а лишь бесплатно и без коммерческой выгоды (не требуя взамен платы,
SMS и т.д.) предоставляет доступ к создаваемому пользователями каталогу ссылок на торрент-файлы, которые содержат только списки хеш-сумм.
Убедительная просьба с жалобами обращаться напрямую к пользователю, разместившему торрент файл.

Вверх