Loading...
Error

Идеальный голос 2 / Pitch Perfect 2 (Элизабет Бэнкс) [2015 г., комедия, музыка, WEBRip] MVO

Статистика раздачи
Размер:  1,44 GB   |    Зарегистрирован:  1 год 4 месяца   |    Скачан:  17 раз

Полного источника не было: 6 месяцев

Сидов:  0  |  0 KB/s  ]   Личеров:  0  |  0 KB/s  ]

* - сиды/пиры с внешних источников

   
 
Автор Сообщение

makkol Пол:Муж

18-Июл-2015 15:21

Идеальный голос 2 / Pitch Perfect 2
«Самые крутые девчонки возвращаются»


Год выпуска: 2015
Жанр: комедия, музыка
Производство: США [Brownstone Productions, Gold Circle Films, Universal Pictures]
Режиссер: Элизабет Бэнкс
В ролях: Анна Кендрик, Ребел Уилсон, Хейли Стайнфелд, Бриттани Сноу, Скайлар Эстин, Адам Дивайн, Кэти Сагал, Анна Кэмп, Бен Платт, Алексис Нэп
Сюжет фильма:
Самые крутые девчонки возвращаются! Теперь у них все по-взрослому: ремиксы — моднее, каблуки — выше, юбки — короче. Но идеальный голос всегда на месте.

  • Мировая премьера: 20 апреля 2015
  • Российская премьера: 14 мая 2015


Качество видео: WEBRip

Продолжительность: 01:54:39
Формат: AVI
Видео: XviD, 720x384 (1.85:1), 23.976 fps, 1599 kbps
Аудио: русский, любительский многоголосый закадровый (Причудики), AC3 2.0, 48 kHz, 192 kbps
Субтитры: корейские вшитые неотключаемые!

Код:

Общее
Полное имя : Idealnyj.golos.2.2015.L.WEBRip.avi
Формат : AVI
Формат/Информация : Audio Video Interleave
Размер файла : 1,44 Гбайт
Продолжительность : 1 ч. 54 м.
Общий поток : 1800 Кбит/сек
Программа кодирования : VirtualDubMod 1.5.10.3 | build 2550/release)
Библиотека кодирования : VirtualDubMod build 2550/release

Видео
Идентификатор : 0
Формат : MPEG-4 Visual
Профиль формата : Simple@L5
Параметр BVOP формата : Нет
Параметр QPel формата : Нет
Параметр GMC формата : Без точки перехода
Параметр матрицы формата : Default (H.263)
Идентификатор кодека : XVID
Идентификатор кодека/Подсказка : XviD
Продолжительность : 1 ч. 54 м.
Битрейт : 1599 Кбит/сек
Ширина : 720 пикселей
Высота : 384 пикселя
Соотношение сторон : 1,85:1
Частота кадров : 23,976 кадра/сек
Цветовое пространство : YUV
Субдискретизация насыщенности : 4:2:0
Битовая глубина : 8 бит
Тип развёртки : Прогрессивная
Метод сжатия : С потерями
Бит/(Пиксели*Кадры) : 0.241
Размер потока : 1,28 Гбайт (89%)
Библиотека кодирования : Lavc56.13.100

Аудио
Идентификатор : 1
Формат : AC-3
Формат/Информация : Audio Coding 3
Расширение режима : CM (complete main)
Параметр Endianness формата : Big
Идентификатор кодека : 2000
Продолжительность : 1 ч. 54 м.
Вид битрейта : Постоянный
Битрейт : 192 Кбит/сек
Каналы : 2 канала
Расположение каналов : Front: L R
Частота : 48,0 КГц
Метод сжатия : С потерями
Размер потока : 157 Мбайт (11%)
Выравнивание : Разделение по промежуткам
Продолжительность промежутка : 42 мс. (1,00 видеокадр)
Время предзагрузки промежутка : 500 мс.
picpicpicpicpic
Для увеличения картинки щелкните мышкой по превью

Этот торрент недоступен для скачивания без регистрации, однако доступен по публичной magnet-ссылке (источники с публичных трекеров). Перед использованием ссылки прочтите, пожалуйста Пользовательское соглашение, а также как можно дольше оставайтесь на раздаче! Для того, чтобы скачать сам торрент-файл (который видит больше источников), а также для того, чтобы поблагодарить релизера, вам необходимо зарегистрироваться. Если регистрироваться лень - вы можете также попробовать скачать релиз по нашим партнерским ссылкам ниже.

[underverse.su].t56095.torrent
Трекер: Зарегистрирован   [ 18.07.2015 15:21 ]  

Статус: проверено (by Паукан at 29.07.2015 09:31)
Поблагодарили: пока никто не поблагодарил...
Тип торрента: публичный - доступные источники с открытых трекеров: 
Размер: 1,44 GB (занимает 0,33 DVDR, для записи нужно 1 болванка DVDR/RW)
 
 
Похожие темы
Форум Тема Автор Торрент Отв. Посл. сооб.
T Зарубежное кино [DVDRip, Low-Res HDRip, и т.д.] Идеальный мужчина / Un homme ideal (Ян Гозлан / Yann Gozlan) [2015 г., триллер, HDRip] MVO (чистый звук) + Original (Fre) + Sub (Eng) 90ytr90
555 | 16

1 | 371

6

18.09.2016 18:02

Зарубежное кино [DVDRip, Low-Res HDRip, и т.д.] Идеальный студент / The Perfect Student (Майкл Фейфер) [2011 г., триллер, криминал, детектив, DVDRip] MVO + Original RG NewCinema
0 | 0

0 | 1593

30

26.10.2012 08:22

Зарубежное кино [DVDRip, Low-Res HDRip, и т.д.] Идеальный голос / Pitch Perfect (Джейсон Мур) [2012 г., комедия, музыка, HDRip] VO (zamez) 90ytr90
1 | 0

2 | 528

3

22.12.2012 20:15

Зарубежное кино [DVDRip, Low-Res HDRip, и т.д.] Идеальный голос / Pitch Perfect (Джейсон Мур) [2012 г., комедия, музыка, HDRip] VO (zamez) + Original 90ytr90
8 | 1

0 | 687

15

23.12.2012 08:25

Зарубежное кино [DVDRip, Low-Res HDRip, и т.д.] Идеальный голос / Pitch Perfect (Джейсон Мур / Jason Moore) [2012, комедия, музыка, HDRip] VO [zamez] Garnett
41 | 0

0 | 1320

7

08.01.2013 11:48

Зарубежное кино [DVDRip, Low-Res HDRip, и т.д.] Идеальный голос / Pitch Perfect (Джейсон Мур / Jason Moore) [2012 г., мелодрама, комедия, музыка, HDRip] Dub + Original Gaarochi
3 | 0

0 | 1224

19

09.05.2013 19:30

Зарубежное кино [DVDRip, Low-Res HDRip, и т.д.] Идеальный голос / Pitch Perfect ( Джейсон Мур / Jason Moore) [2013 г., мелодрама, комедия, музыка, HDRip] Dub Gaarochi
0 | 0

0 | 913

24

09.05.2013 19:56

Зарубежное кино [DVDRip, Low-Res HDRip, и т.д.] Идеальный конец / A Perfect Ending (Николь Конн) [2012 г., драма, DVDRip] VO Паукан
4 | 0

0 | 905

29

05.02.2014 15:48

Зарубежное кино [DVDRip, Low-Res HDRip, и т.д.] Идеальный шторм / The Perfect Storm (Вольфганг Петерсен) [2000 г., боевик, триллер, драма, приключения, HDRip] Dub ultarasbarcelona
17 | 0

0 | 650

14

25.04.2015 16:41

Зарубежное кино [DVDRip, Low-Res HDRip, и т.д.] Идеальный голос 2 / Pitch Perfect 2 (Элизабет Бэнкс) [2015 г., комедия, музыка, HDRip] MVO makkol
23 | 0

0 | 578

9

04.08.2015 13:15


Яндекс.Метрика powered by Sphinx


В Н И М А Н И Е
Сайт не распространяет и не хранит электронные версии произведений, а лишь бесплатно и без коммерческой выгоды (не требуя взамен платы,
SMS и т.д.) предоставляет доступ к создаваемому пользователями каталогу ссылок на торрент-файлы, которые содержат только списки хеш-сумм.
Убедительная просьба с жалобами обращаться напрямую к пользователю, разместившему торрент файл.

Вверх