Loading...
Error

Свой ребенок / Obvious Child (Джиллиан Робеспьер) [2014 г., комедия, мелодрама, HDRip] MVO

Статистика раздачи
Размер:  1,35 GB   |    Зарегистрирован:  1 год 4 месяца   |    Скачан:  17 раз

Полного источника не было: 2 месяца 16 дней

Сидов:  0  |  0 KB/s  ]   Личеров:  0  |  0 KB/s  ]

* - сиды/пиры с внешних источников

   
 
Автор Сообщение

makkol Пол:Муж

18-Июл-2015 11:44

Свой ребенок / Obvious Child


Год выпуска: 2014
Жанр: комедия, мелодрама
Производство: США [Rooks Nest Entertainment, Sundial Pictures, Votiv Films]
Режиссер: Джиллиан Робеспьер
В ролях: Дженни Слейт,Джейк Лэси,Габи Хоффманн,Гейб Лидман,Дэвид Кросс,Ричард Кайнд,Полли Дрэйпер,Пол Бриганти,Синди Чунг,Стивен Сингер
Сюжет фильма:
Жизнь Донны складывается не очень удачно. Мечта о большой сцене и главных ролях в кино разбилась о реалии – она обычная актриса, которых тысячи, и ей надо считать удачей, если относительно часто удается получать роли (в основном "подменные") в маленьких театрах или на небольших корпоративах. И в тот момент, когда, кажется, все начало налаживаться (она получила постоянную работу в театре), судьба подготовила ряд испытаний: сначала ее бойфренд уходит от Донны к более молодой и чуть более успешной актрисе. Нервные переживания из-за бойфренда выбили девушку на некоторое время из равновесия, что отразилось на работе – её увольняют. Ну, и в довершении ко всему, она узнает, что случайный секс с симпатичным незнакомцем не остался без последствий – Донна беременна... Молодой девушке предстоит сделать очень непростой для нее выбор – прервать беременность или стать матерью...

  • Мировая премьера: 17 января 2014


Качество видео: HDRip

Продолжительность: 01:24:23
Формат: AVI
Видео: XviD, 720x304 (2.35:1), 23.976 fps, 1904 kbps
Аудио: русский, профессиональный многоголосый закадровый (официальный звук), AC3 2.0, 48 kHz, 384 kbps

Код:

Общее
Полное имя                               : Obvious.Child.2014.P.HDRip.1400MB.avi
Формат                                   : AVI
Формат/Информация                        : Audio Video Interleave
Размер файла                             : 1,35 Гбайт
Продолжительность                        : 1 ч. 24 м.
Общий поток                              : 2297 Кбит/сек
Программа кодирования                    : VirtualDubMod 1.5.10.2 (build 2540/release)
Библиотека кодирования                   : VirtualDubMod build 2540/release

Видео
Идентификатор                            : 0
Формат                                   : MPEG-4 Visual
Профиль формата                          : Advanced Simple@L5
Параметр BVOP формата                    : 2
Параметр QPel формата                    : Нет
Параметр GMC формата                     : Без точки перехода
Параметр матрицы формата                 : Default (MPEG)
Идентификатор кодека                     : XVID
Идентификатор кодека/Подсказка           : XviD
Продолжительность                        : 1 ч. 24 м.
Битрейт                                  : 1904 Кбит/сек
Ширина                                   : 720 пикселей
Высота                                   : 304 пикселя
Соотношение сторон                       : 2,35:1
Частота кадров                           : 23,976 кадра/сек
Цветовое пространство                    : YUV
Субдискретизация насыщенности            : 4:2:0
Битовая глубина                          : 8 бит
Тип развёртки                            : Прогрессивная
Метод сжатия                             : С потерями
Бит/(Пиксели*Кадры)                      : 0.345
Размер потока                            : 1,07 Гбайт (79%)
Библиотека кодирования                   : XviD 1.2.1 (UTC 2008-12-04)

Аудио
Идентификатор                            : 1
Формат                                   : AC-3
Формат/Информация                        : Audio Coding 3
Расширение режима                        : CM (complete main)
Параметр Endianness формата              : Big
Идентификатор кодека                     : 2000
Продолжительность                        : 1 ч. 24 м.
Вид битрейта                             : Постоянный
Битрейт                                  : 384 Кбит/сек
Каналы                                   : 2 канала
Расположение каналов                     : Front: L R
Частота                                  : 48,0 КГц
Битовая глубина                          : 16 бит
Метод сжатия                             : С потерями
Размер потока                            : 232 Мбайт (17%)
Выравнивание                             : Разделение по промежуткам
picpicpicpicpic
Для увеличения картинки щелкните мышкой по превью

Этот торрент недоступен для скачивания без регистрации, однако доступен по публичной magnet-ссылке (источники с публичных трекеров). Перед использованием ссылки прочтите, пожалуйста Пользовательское соглашение, а также как можно дольше оставайтесь на раздаче! Для того, чтобы скачать сам торрент-файл (который видит больше источников), а также для того, чтобы поблагодарить релизера, вам необходимо зарегистрироваться. Если регистрироваться лень - вы можете также попробовать скачать релиз по нашим партнерским ссылкам ниже.

[underverse.su].t56089.torrent
Трекер: Зарегистрирован   [ 18.07.2015 11:44 ]  

Статус: проверено (by Паукан at 29.07.2015 09:32)
Поблагодарили: пока никто не поблагодарил...
Тип торрента: публичный - доступные источники с открытых трекеров: 
Размер: 1,35 GB (занимает 0,31 DVDR, для записи нужно 1 болванка DVDR/RW)
 
 
Похожие темы
Форум Тема Автор Торрент Отв. Посл. сооб.
Зарубежное кино [HDDVDRip / BDRip / WEB-DL / HDTV 1080/720р] Свой ребенок / Obvious Child (Джиллиан Робеспьер ) [2014 г., комедия, мелодрама, BDRip 720p] MVO + Original + Subs makkol
3 | 0

0 | 855

0

18.07.2015 11:58

Зарубежное кино [HDDVDRip / BDRip / WEB-DL / HDTV 1080/720р] Свой ребенок / Obvious Child (Джиллиан Робеспьер ) [2014 г., комедия, мелодрама, BDRip 1080p] MVO + Original + Subs (Eng) makkol
3 | 0

0 | 1035

5

18.07.2015 12:10


Яндекс.Метрика powered by Sphinx


В Н И М А Н И Е
Сайт не распространяет и не хранит электронные версии произведений, а лишь бесплатно и без коммерческой выгоды (не требуя взамен платы,
SMS и т.д.) предоставляет доступ к создаваемому пользователями каталогу ссылок на торрент-файлы, которые содержат только списки хеш-сумм.
Убедительная просьба с жалобами обращаться напрямую к пользователю, разместившему торрент файл.

Вверх