Loading...
Error

Второй шанс / En chance til (Сюзанна Бир) [2014 г., триллер, драма, HDRip] DVO + Original

Статистика раздачи
Размер:  1,46 GB   |    Зарегистрирован:  1 год 4 месяца   |    Скачан:  19 раз

Полного источника не было: 7 месяцев

Сидов:  0  |  0 KB/s  ]   Личеров:  0  |  0 KB/s  ]

* - сиды/пиры с внешних источников

   
 
Автор Сообщение

makkol Пол:Муж

17-Июл-2015 23:09

Второй шанс / En chance til
«Как далеко ты готов зайти?»


Год выпуска: 2014
Жанр: триллер, драма
Производство: Дания [Zentropa Entertainments, Danmarks Radio (DR), Det Danske Filminstitut]
Режиссер: Сюзанна Бир
В ролях: Николай Костер-Вальдау, Ульрих Томсен, Николай Ли Каас, Томас Бо Ларсен, Мария Бонневи, Питер Абер, Молли Бликст Эгелинд, Бодиль Ёргенсон, Мэй Андерсен, Оле Дюпон
Сюжет фильма:
В драме «Второй шанс» два напарника-полицейских Андреас и Симон приезжают на вызов разбираться с бытовым насилием. Квартира, в которой обитает молодая пара наркоманов, напоминает настоящую берлогу. Более того, в стенном шкафу полицейские обнаруживают грязного, надрывающегося от крика младенца. В этот момент в голове у Андреаса что-то щелкает, и он забирает ребенка, но отдавать младенца в спецслужбы не собирается… Почему полицейский будет пытаться всех убедить, что родители-наркоманы убили малыша и как он распорядится судьбой крохи?

  • Мировая премьера: 9 сентября 2014


Качество видео: HDRip

Продолжительность: 01:37:56
Формат: AVI
Видео: XviD, 720x304 (2.35:1), 25.000 fps, 1730 kbps
Аудио #1: русский, любительский двухголосый закадровый (Lucky Strike), AC3 2.0, 48 kHz, 192 kbps
Аудио #2: датский, оригинал, AC3 2.0, 48 kHz, 192 kbps

Код:

Общее
Полное имя                               : Vtoroj.shans.2014.L1.HDRip.avi
Формат                                   : AVI
Формат/Информация                        : Audio Video Interleave
Размер файла                             : 1,46 Гбайт
Продолжительность                        : 1 ч. 37 м.
Общий поток                              : 2128 Кбит/сек
Программа кодирования                    : VirtualDubMod 1.5.10.3 | www.virtualdub-fr.org || (build 2550/release)
Библиотека кодирования                   : VirtualDubMod build 2550/release

Видео
Идентификатор                            : 0
Формат                                   : MPEG-4 Visual
Профиль формата                          : Advanced Simple@L5
Параметр BVOP формата                    : 1
Параметр QPel формата                    : Нет
Параметр GMC формата                     : Без точки перехода
Параметр матрицы формата                 : Выборочная
Идентификатор кодека                     : XVID
Идентификатор кодека/Подсказка           : XviD
Продолжительность                        : 1 ч. 37 м.
Битрейт                                  : 1730 Кбит/сек
Ширина                                   : 720 пикселей
Высота                                   : 304 пикселя
Соотношение сторон                       : 2,35:1
Частота кадров                           : 25,000 кадров/сек
Цветовое пространство                    : YUV
Субдискретизация насыщенности            : 4:2:0
Битовая глубина                          : 8 бит
Тип развёртки                            : Прогрессивная
Метод сжатия                             : С потерями
Бит/(Пиксели*Кадры)                      : 0.316
Размер потока                            : 1,18 Гбайт (81%)
Библиотека кодирования                   : XviD 73

Аудио #1
Идентификатор                            : 1
Формат                                   : AC-3
Формат/Информация                        : Audio Coding 3
Расширение режима                        : CM (complete main)
Параметр Endianness формата              : Big
Идентификатор кодека                     : 2000
Продолжительность                        : 1 ч. 37 м.
Вид битрейта                             : Постоянный
Битрейт                                  : 192 Кбит/сек
Каналы                                   : 2 канала
Расположение каналов                     : Front: L R
Частота                                  : 48,0 КГц
Битовая глубина                          : 16 бит
Метод сжатия                             : С потерями
Задержка видео                           : 16 мс.
Размер потока                            : 134 Мбайт (9%)
Выравнивание                             : Разделение по промежуткам
Продолжительность промежутка             : 40  мс. (1,00 видеокадр)
Время предзагрузки промежутка            : 500  мс.

Аудио #2
Идентификатор                            : 2
Формат                                   : AC-3
Формат/Информация                        : Audio Coding 3
Расширение режима                        : CM (complete main)
Параметр Endianness формата              : Big
Идентификатор кодека                     : 2000
Продолжительность                        : 1 ч. 37 м.
Вид битрейта                             : Постоянный
Битрейт                                  : 192 Кбит/сек
Каналы                                   : 2 канала
Расположение каналов                     : Front: L R
Частота                                  : 48,0 КГц
Битовая глубина                          : 16 бит
Метод сжатия                             : С потерями
Задержка видео                           : 16 мс.
Размер потока                            : 134 Мбайт (9%)
Выравнивание                             : Разделение по промежуткам
Продолжительность промежутка             : 40  мс. (1,00 видеокадр)
Время предзагрузки промежутка            : 500  мс.
picpicpicpicpic
Для увеличения картинки щелкните мышкой по превью

Этот торрент недоступен для скачивания без регистрации, однако доступен по публичной magnet-ссылке (источники с публичных трекеров). Перед использованием ссылки прочтите, пожалуйста Пользовательское соглашение, а также как можно дольше оставайтесь на раздаче! Для того, чтобы скачать сам торрент-файл (который видит больше источников), а также для того, чтобы поблагодарить релизера, вам необходимо зарегистрироваться. Если регистрироваться лень - вы можете также попробовать скачать релиз по нашим партнерским ссылкам ниже.

[underverse.su].t56078.torrent
Трекер: Зарегистрирован   [ 17.07.2015 23:09 ]  

Статус: проверено (by Паукан at 19.07.2015 22:40)
Поблагодарили: пока никто не поблагодарил...
Тип торрента: публичный - доступные источники с открытых трекеров: 
Размер: 1,46 GB (занимает 1/3 DVDR, для записи нужно 1 болванка DVDR/RW)
 
 
Похожие темы
Форум Тема Автор Торрент Отв. Посл. сооб.
T Зарубежное кино [DVDRip, Low-Res HDRip, и т.д.] Второй шанс / Danny Collins (Дэн Фогельман / Dan Fogelman) [2015 г., драма, BDRip-AVC] Dub (iTunes) + Original (Eng) + Sub (Rus, Eng) 90ytr90
29 | 0

0 | 401

1

20.11.2016 17:04

T Зарубежное кино [DVDRip, Low-Res HDRip, и т.д.] Второй шанс / Danny Collins (Дэн Фогельман / Dan Fogelman) [2015 г., драма, BDRip-AVC] Dub (iTunes) + Sub (Eng) 90ytr90
41 | 2

0 | 392

3

20.11.2016 17:01

T Зарубежное кино [DVDRip, Low-Res HDRip, и т.д.] Второй шанс / Danny Collins (Дэн Фогельман / Dan Fogelman) [2015 г., драма, HDRip] Dub (iTunes) 90ytr90
17 | 0

0 | 341

4

20.11.2016 16:56

Зарубежное кино [DVDRip, Low-Res HDRip, и т.д.] Второй шанс / Gridiron Gang (Фил Джоану / Phil Joanou) [2006 г., драма, криминал, спорт, HDRip] MVO 90ytr90
0 | 0

0 | 449

2

24.02.2015 16:51

T Зарубежное кино [DVDRip, Low-Res HDRip, и т.д.] Второй шанс / Danny Collins (Дэн Фогельман) [2015 г., драма, комедия, музыка, HDRip] Dub makkol
11 | 0

0 | 6134

20

18.06.2015 23:58

Зарубежное кино [DVDRip, Low-Res HDRip, и т.д.] Второй шанс / Second Chance (Лиман Дэйтон) [1996 г., фантастика, комедия, DVDRip] AVO (Живов) + Original makkol
6 | 0

0 | 470

3

03.07.2016 13:57

T Зарубежное кино [HDDVDRip / BDRip / WEB-DL / HDTV 1080/720р] Второй шанс / Danny Collins (Дэн Фогельман / Dan Fogelman) [2015 г., драма, BDRip 1080p] Dub (iTunes) + Original (Eng) + Sub (Eng) 90ytr90
10 | 1

0 | 388

4

20.11.2016 17:13

T Зарубежное кино [HDDVDRip / BDRip / WEB-DL / HDTV 1080/720р] Второй шанс / Danny Collins (Дэн Фогельман / Dan Fogelman) [2015 г., драма, BDRip 720p] Dub (iTunes) + Original (Eng) + Sub (Eng) 90ytr90
17 | 0

0 | 364

2

20.11.2016 17:09

Зарубежное кино [HDDVDRip / BDRip / WEB-DL / HDTV 1080/720р] Второй шанс / En chance til (Сюзанна Бир) [2014 г., триллер, драма, BDRip 720p] DVO + Original + Subs makkol
4 | 3

0 | 831

5

17.07.2015 23:51

Зарубежное кино [HDDVDRip / BDRip / WEB-DL / HDTV 1080/720р] Второй шанс / En chance til (Сюзанна Бир) [2014 г., триллер, BDRip 1080p] DVO + Original + Subs makkol
5 | 2

0 | 887

6

18.07.2015 00:07


Яндекс.Метрика powered by Sphinx


В Н И М А Н И Е
Сайт не распространяет и не хранит электронные версии произведений, а лишь бесплатно и без коммерческой выгоды (не требуя взамен платы,
SMS и т.д.) предоставляет доступ к создаваемому пользователями каталогу ссылок на торрент-файлы, которые содержат только списки хеш-сумм.
Убедительная просьба с жалобами обращаться напрямую к пользователю, разместившему торрент файл.

Вверх