Loading...
Error

Круг / Cirkeln (Леван Акин) [2015 г., фэнтези, триллер, драма, детектив, HDRip] VO

Статистика раздачи
Размер:  2,04 GB   |    Зарегистрирован:  1 год 4 месяца   |    Скачан:  25 раз

Полного источника не было: 2 часа 30 минут

Сидов:  0  |  0 KB/s  ]   Личеров:  0  |  0 KB/s  ]

* - сиды/пиры с внешних источников

   
 
Автор Сообщение

makkol Пол:Муж

17-Июл-2015 22:31

Круг / Cirkeln


Год выпуска: 2015
Жанр: фэнтези, триллер, драма, детектив
Производство: Швеция [RMV Film]
Режиссер: Леван Акин
В ролях: Йозефин Асплунд, Хелена Энгстрём, Миранда Фридман, Ирма фон Платен, Ханна Асп, Леона Аксельсен, Рут Вега Фернандез, Себастьян Хиорт аф Орнас, Джоанна Гранстром
Сюжет фильма:
В маленьком шведском городке ученики местной школы готовятся к началу нового учебного года, ссорятся с друзьями, выясняют отношения с родителями… Жизнь идет своим чередом, пока однажды в школьном туалете не обнаруживают тело подростка и над городом не встает кроваво-красная луна. Оказывается, город стал местом борьбы добра и зла и теперь только от немногих избранных зависит исход мировой битвы…

  • Мировая премьера: 10 февраля 2015


Качество видео: HDRip

Продолжительность: 02:23:35
Формат: AVI
Видео: XviD, 720x304 (2.35:1), 24.000 fps, 1799 kbps
Аудио: русский, любительский одноголосый закадровый (Vaxywod), AC3 2.0, 48 kHz, 224 kbps

Код:

Общее
Полное имя                               : Cirkeln.Krug.Xvid.avi
Формат                                   : AVI
Формат/Информация                        : Audio Video Interleave
Профиль формата                          : OpenDML
Размер файла                             : 2,04 Гбайт
Продолжительность                        : 2 ч. 23 м.
Общий поток                              : 2035 Кбит/сек
Программа кодирования                    : VirtualDubMod 1.5.10.3 | (build 2550/release)
Библиотека кодирования                   : VirtualDubMod build 2550/release

Видео
Идентификатор                            : 0
Формат                                   : MPEG-4 Visual
Профиль формата                          : Advanced Simple@L5
Параметр BVOP формата                    : 2
Параметр QPel формата                    : Нет
Параметр GMC формата                     : Без точки перехода
Параметр матрицы формата                 : Default (MPEG)
Идентификатор кодека                     : XVID
Идентификатор кодека/Подсказка           : XviD
Продолжительность                        : 2 ч. 23 м.
Битрейт                                  : 1799 Кбит/сек
Ширина                                   : 720 пикселей
Высота                                   : 304 пикселя
Соотношение сторон                       : 2,35:1
Частота кадров                           : 24,000 кадра/сек
Цветовое пространство                    : YUV
Субдискретизация насыщенности            : 4:2:0
Битовая глубина                          : 8 бит
Тип развёртки                            : Прогрессивная
Метод сжатия                             : С потерями
Бит/(Пиксели*Кадры)                      : 0.342
Размер потока                            : 1,80 Гбайт (88%)
Библиотека кодирования                   : XviD 1.2.1 (UTC 2008-12-04)

Аудио
Идентификатор                            : 1
Формат                                   : AC-3
Формат/Информация                        : Audio Coding 3
Расширение режима                        : CM (complete main)
Параметр Endianness формата              : Big
Идентификатор кодека                     : 2000
Продолжительность                        : 2 ч. 23 м.
Вид битрейта                             : Постоянный
Битрейт                                  : 224 Кбит/сек
Каналы                                   : 2 канала
Расположение каналов                     : Front: L R
Частота                                  : 48,0 КГц
Битовая глубина                          : 16 бит
Метод сжатия                             : С потерями
Размер потока                            : 230 Мбайт (11%)
Выравнивание                             : Разделение по промежуткам
Продолжительность промежутка             : 42  мс. (1,00 видеокадр)
Время предзагрузки промежутка            : 500  мс.
picpicpicpicpic
Для увеличения картинки щелкните мышкой по превью

Этот торрент недоступен для скачивания без регистрации, однако доступен по публичной magnet-ссылке (источники с публичных трекеров). Перед использованием ссылки прочтите, пожалуйста Пользовательское соглашение, а также как можно дольше оставайтесь на раздаче! Для того, чтобы скачать сам торрент-файл (который видит больше источников), а также для того, чтобы поблагодарить релизера, вам необходимо зарегистрироваться. Если регистрироваться лень - вы можете также попробовать скачать релиз по нашим партнерским ссылкам ниже.

[underverse.su].t56076.torrent
Трекер: Зарегистрирован   [ 17.07.2015 22:31 ]  

Статус: проверено (by Паукан at 29.07.2015 09:32)
Поблагодарили: 1 человек
Тип торрента: публичный - доступные источники с открытых трекеров: 
Размер: 2,04 GB (занимает 0,47 DVDR, для записи нужно 1 болванка DVDR/RW)
 
 
Похожие темы
Форум Тема Автор Торрент Отв. Посл. сооб.
Зарубежное кино [DVDRip, Low-Res HDRip, и т.д.] Круг / Cirkeln (Леван Акин) [2015 г., фэнтези, триллер, драма, детектив, HDRip] DVO makkol
0 | 0

0 | 691

26

15.08.2015 13:22


Яндекс.Метрика powered by Sphinx


В Н И М А Н И Е
Сайт не распространяет и не хранит электронные версии произведений, а лишь бесплатно и без коммерческой выгоды (не требуя взамен платы,
SMS и т.д.) предоставляет доступ к создаваемому пользователями каталогу ссылок на торрент-файлы, которые содержат только списки хеш-сумм.
Убедительная просьба с жалобами обращаться напрямую к пользователю, разместившему торрент файл.

Вверх