Loading...
Error

Дивергент, глава 2: Инсургент / Insurgent (Роберт Швентке) [2015 г., фантастика, триллер, приключения, HDTVRip] Dub

Статистика раздачи
Размер:  1,46 GB   |    Зарегистрирован:  1 год 4 месяца   |    Скачан:  309 раз
Сидов:  2  |  0 KB/s  ]   Личеров:  0  |  0 KB/s  ]

* - сиды/пиры с внешних источников

   
 
Автор Сообщение

IlyaSaint Пол:Муж

17-Июл-2015 18:36

Дивергент, глава 2: Инсургент / Insurgent


Год выпуска: 2015
Жанр: фантастика, триллер, приключения
Страна: США
Режиссер: Роберт Швентке
В ролях: Шейлин Вудли, Тео Джеймс, Кейт Уинслет, Джай Кортни, Энсел Элгорт, Майлз Теллер, Зои Кравиц, Мекхай Файфер, Наоми Уоттс, Октавия Спенсер
Сюжет фильма:
В новой главе антиутопии об обществе, где все расставлено по полочкам, а любая индивидуальность подлежит искоренению, Трис должна найти способ борьбы со страшной системой, уничтожающей ее близких. Кто из них на очереди? Она узнает все больше страшных подробностей, стоящих за кажущимся порядком, и уже не может не видеть, что в ее мире пора что-то менять. Но главное в этой борьбе — справиться с расколом, который враг порождает в ее собственной душе.

Качество видео: HDTVRip
Продолжительность: 01:59:17
Формат: avi
Видео: XviD, 720x400, 1615 kbps
Аудио: русский, дублированный (чистый звук), AC3 2.0, 128 kbps

Код:

General
Complete name                    : H:\Торрент\2015\Июль\Видео - фильмы\Es0rgant0.2015.D.HDTVRip.1400Mb.avi
Format                           : AVI
Format/Info                      : Audio Video Interleave
File size                        : 1.46 GiB
Duration                         : 1h 59mn
Overall bit rate                 : 1 753 Kbps
Writing application              : VirtualDubMod 1.5.10.2 (build 2540/release)
Writing library                  : VirtualDubMod build 2540/release

Video
ID                               : 0
Format                           : MPEG-4 Visual
Format profile                   : Streaming Video@L1
Format settings, BVOP            : Yes
Format settings, QPel            : No
Format settings, GMC             : No warppoints
Format settings, Matrix          : Default (MPEG)
Codec ID                         : XVID
Codec ID/Hint                    : XviD
Duration                         : 1h 59mn
Bit rate                         : 1 616 Kbps
Width                            : 720 pixels
Height                           : 400 pixels
Display aspect ratio             : 16/9
Frame rate                       : 23.976 fps
Resolution                       : 24 bits
Colorimetry                      : 4:2:0
Scan type                        : Progressive
Bits/(Pixel*Frame)               : 0.234
Stream size                      : 1.35 GiB (92%)
Writing library                  : XviD 1.2.1 (UTC 2008-12-04)

Audio
ID                               : 1
Format                           : AC-3
Format/Info                      : Audio Coding 3
Codec ID                         : 2000
Duration                         : 1h 59mn
Bit rate mode                    : Constant
Bit rate                         : 128 Kbps
Channel(s)                       : 2 channels
Channel positions                : L R
Sampling rate                    : 48.0 KHz
Stream size                      : 109 MiB (7%)
Alignment                        : Split accross interleaves
Interleave, duration             : 42 ms (1.00 video frame)
Interleave, preload duration     : 500 ms

picpicpicpicpicpic
Для увеличения картинки щелкните мышкой по превью

Этот торрент недоступен для скачивания без регистрации, однако доступен по публичной magnet-ссылке (источники с публичных трекеров). Перед использованием ссылки прочтите, пожалуйста Пользовательское соглашение, а также как можно дольше оставайтесь на раздаче! Для того, чтобы скачать сам торрент-файл (который видит больше источников), а также для того, чтобы поблагодарить релизера, вам необходимо зарегистрироваться. Если регистрироваться лень - вы можете также попробовать скачать релиз по нашим партнерским ссылкам ниже.

[underverse.su].t56071.torrent
Трекер: Зарегистрирован   [ 17.07.2015 18:36 ]  

Статус: проверено (by makkol at 07.08.2015 23:06)
Поблагодарили: 11 человек
Тип торрента: публичный - доступные источники с открытых трекеров: 
Размер: 1,46 GB (занимает 0,33 DVDR, для записи нужно 1 болванка DVDR/RW)
 
 
Похожие темы
Форум Тема Автор Торрент Отв. Посл. сооб.
Зарубежное кино [DVDRip, Low-Res HDRip, и т.д.] Дивергент, глава 3: За стеной / Allegiant (Роберт Швентке / Robert Schwentke) [2016 г., фантастика, боевик, приключения, BDRip-AVC] Dub + Original (Eng) + Sub (Eng) 90ytr90
56 | 1

0 | 524

4

13.11.2016 17:03

Зарубежное кино [DVDRip, Low-Res HDRip, и т.д.] Дивергент, глава 3: За стеной / Allegiant (Роберт Швентке / Robert Schwentke) [2016 г., фантастика, боевик, приключения, HDRip] Dub (Централ Партнершип) 90ytr90
316 | 5

0 | 479

3

13.11.2016 15:32

Зарубежное кино [DVDRip, Low-Res HDRip, и т.д.] Дивергент, глава 2: Инсургент / Insurgent (Роберт Швентке) [2015 г., фантастика, триллер, приключения, HDRip] Dub (Line) + Original makkol
99 | 0

0 | 970

99

23.07.2015 14:45

T Зарубежное кино [DVDRip, Low-Res HDRip, и т.д.] Дивергент, глава 3: За стеной / Allegiant (Роберт Швентке) [2016 г., фантастика, боевик, WEB-DLRip] Dub (iTunes) makkol
230 | 1

0 | 1295

56

16.06.2016 22:23

Зарубежное кино [DVDRip, Low-Res HDRip, и т.д.] Дивергент, глава 3: За стеной / Allegiant (Роберт Швентке / Robert Schwentke) [2016 г., фантастика, боевик, приключения, HDRip] Dub 90ytr90
540 | 9

0 | 481

29

04.07.2016 20:05

Зарубежное кино [HDDVDRip / BDRip / WEB-DL / HDTV 1080/720р] Дивергент, глава 3: За стеной / Allegiant (Роберт Швентке / Robert Schwentke) [2016 г., фантастика, боевик, приключения, BDRip 1080p] Dub (Централ Партнершип) + Original (Eng) + Sub (Eng) 90ytr90
32 | 3

0 | 457

2

13.11.2016 18:02

Зарубежное кино [HDDVDRip / BDRip / WEB-DL / HDTV 1080/720р] Дивергент, глава 3: За стеной / Allegiant (Роберт Швентке / Robert Schwentke) [2016 г., фантастика, боевик, приключения, BDRip 1080p] Dub (Централ Партнершип) + Original (Eng) + Sub (Eng) 90ytr90
115 | 16

0 | 462

1

13.11.2016 17:55

Зарубежное кино [HDDVDRip / BDRip / WEB-DL / HDTV 1080/720р] Дивергент, глава 3: За стеной / Allegiant (Роберт Швентке / Robert Schwentke) [2016 г., фантастика, боевик, приключения, BDRip 720p] Dub (Централ Партнершип) + Original (Eng) + Sub (Eng) 90ytr90
14 | 0

0 | 458

3

13.11.2016 17:46

Зарубежное кино [HDDVDRip / BDRip / WEB-DL / HDTV 1080/720р] Дивергент, глава 3: За стеной / Allegiant (Роберт Швентке / Robert Schwentke) [2016 г., фантастика, боевик, приключения, BDRip 720p] Dub (Централ Партнершип) + Original (Eng) + Sub (Eng) 90ytr90
39 | 1

0 | 451

3

13.11.2016 16:21

Зарубежное кино [HDDVDRip / BDRip / WEB-DL / HDTV 1080/720р] Дивергент, глава 2: Инсургент / Insurgent (Роберт Швентке) [2015 г., Фантастика, боевик, мелодрама, приключения, экранизация, HDTVRip 1080p] Dub (чистый звук) + Original romeoexpert
1 | 0

0 | 1127

94

17.07.2015 10:09



Последний раз редактировалось: IlyaSaint (07.08.2015 22:03), всего редактировалось 2 раз(а)

romeoexpert Пол:Муж

20-Июл-2015 10:37

Качество видео: HDTVRip 720p и все? Это все параметры, очень интересно!

makkol Пол:Муж

02-Авг-2015 11:00

 !  Автор, ау! Дооформлять новость будем?
Из всех техпараметров указано только качество видео, и то неверно, здесь просто HDTVRip, без 720p

IlyaSaint Пол:Муж

07-Авг-2015 22:03

++++

07-Авг-2015 23:05

Топик был перенесен из форума Зарубежное кино [HDDVDRip / BDRip / WEB-DL / HDTV 1080/720р] в форум Зарубежное кино [DVDRip, Low-Res HDRip, и т.д.]


makkol
 

Яндекс.Метрика powered by Sphinx


В Н И М А Н И Е
Сайт не распространяет и не хранит электронные версии произведений, а лишь бесплатно и без коммерческой выгоды (не требуя взамен платы,
SMS и т.д.) предоставляет доступ к создаваемому пользователями каталогу ссылок на торрент-файлы, которые содержат только списки хеш-сумм.
Убедительная просьба с жалобами обращаться напрямую к пользователю, разместившему торрент файл.

Вверх