Loading...
Error

Ковбои против динозавров / Cowboys vs Dinosaurs (Эри Новак) [2015 г., фантастика, боевик, DVDRip] VO

Статистика раздачи
Размер:  748 MB   |    Зарегистрирован:  1 год 11 месяцев   |    Скачан:  52 раза

Полного источника не было: 8 месяцев

Сидов:  0  |  0 KB/s  ]   Личеров:  0  |  0 KB/s  ]

* - сиды/пиры с внешних источников

   
 
Автор Сообщение

makkol Пол:Муж

17-Июл-2015 14:45

Ковбои против динозавров / Cowboys vs Dinosaurs


Год выпуска: 2015
Жанр: фантастика, боевик
Производство: США [The Oracle Film Group]
Режиссер: Эри Новак
В ролях: Эрик Робертс, Райб Хиллс, Кэйси Фицджералд, Вернон Уэллс, Джон Фриман, Сара Малакул Лэйн, Хезер Фут, Ник Эндрюс, Jesse Banthem, Стефани Мишелль Боннер
Сюжет фильма:
После случайного взрыва на местном руднике, динозавры вышли из - под завалов, чтобы терроризировать маленький западный город. Теперь группа стрелков должна защищать свой дом, чтобы выжить в битве ковбоев против динозавров.

  • Мировая премьера: 19 мая 2015


Перевод: Anton1
Озвучивание: datynet

Качество видео: DVDRip

Продолжительность: 01:28:40
Формат: AVI
Видео: XviD, 720x400, 29.970 fps, 1039 kbps
Аудио: русский, любительский одноголосый закадровый, MP3 2.0, 44.1 kHz, 128 kbps

Внимание: Присутствует ненормативная лексика!

Код:

Общее
Полное имя                               : Cowboys.vs.Dinosaurs.2015.L1.DVDRip.avi
Формат                                   : AVI
Формат/Информация                        : Audio Video Interleave
Размер файла                             : 748 Мбайт
Продолжительность                        : 1 ч. 28 м.
Общий поток                              : 1179 Кбит/сек
Программа кодирования                    : VirtualDubMod 1.5.10.3 | www.virtualdub-fr.org || (build 2550/release)
Библиотека кодирования                   : VirtualDubMod build 2550/release

Видео
Идентификатор                            : 0
Формат                                   : MPEG-4 Visual
Профиль формата                          : Advanced Simple@L5
Параметр BVOP формата                    : 1
Параметр QPel формата                    : Нет
Параметр GMC формата                     : Без точки перехода
Параметр матрицы формата                 : Выборочная
Идентификатор кодека                     : XVID
Идентификатор кодека/Подсказка           : XviD
Продолжительность                        : 1 ч. 28 м.
Битрейт                                  : 1039 Кбит/сек
Ширина                                   : 720 пикселей
Высота                                   : 400 пикселей
Соотношение сторон                       : 16:9
Частота кадров                           : 29,970 кадров/сек
Цветовое пространство                    : YUV
Субдискретизация насыщенности            : 4:2:0
Битовая глубина                          : 8 бит
Тип развёртки                            : Прогрессивная
Метод сжатия                             : С потерями
Бит/(Пиксели*Кадры)                      : 0.120
Размер потока                            : 659 Мбайт (88%)
Библиотека кодирования                   : XviD 73

Аудио
Идентификатор                            : 1
Формат                                   : MPEG Audio
Версия формата                           : Version 1
Профиль формата                          : Layer 3
Идентификатор кодека                     : 55
Идентификатор кодека/Подсказка           : MP3
Продолжительность                        : 1 ч. 28 м.
Вид битрейта                             : Постоянный
Битрейт                                  : 128 Кбит/сек
Каналы                                   : 2 канала
Частота                                  : 44,1 КГц
Метод сжатия                             : С потерями
Размер потока                            : 81,2 Мбайт (11%)
Выравнивание                             : Разделение по промежуткам
Продолжительность промежутка             : 33  мс. (1,00 видеокадр)
Время предзагрузки промежутка            : 500  мс.
Библиотека кодирования                   : LAME3.99r
Настройки программы                      : -m s -V 4 -q 2 -lowpass 17 -b 128
picpicpicpicpic
Для увеличения картинки щелкните мышкой по превью

Этот торрент недоступен для скачивания без регистрации, однако доступен по публичной magnet-ссылке (источники с публичных трекеров). Перед использованием ссылки прочтите, пожалуйста Пользовательское соглашение, а также как можно дольше оставайтесь на раздаче! Для того, чтобы скачать сам торрент-файл (который видит больше источников), а также для того, чтобы поблагодарить релизера, вам необходимо зарегистрироваться. Если регистрироваться лень - вы можете также попробовать скачать релиз по нашим партнерским ссылкам ниже.

[underverse.su].t56066.torrent
Трекер: Зарегистрирован   [ 17.07.2015 14:45 ]  

Статус: проверено (by Паукан at 29.07.2015 09:32)
Поблагодарили: пока никто не поблагодарил...
Тип торрента: публичный - доступные источники с открытых трекеров: 
Размер: 748 MB (занимает 0,17 DVDR, для записи нужно 1 болванка DVDR/RW)
 
 
Похожие темы
Форум Тема Автор Торрент Отв. Посл. сооб.
Зарубежное кино [DVDRip, Low-Res HDRip, и т.д.] Ковбои против пришельцев / Cowboys & Aliens (Джон Фавро) [2011 г., фантастика, боевик, триллер, вестерн, HDRip] RG NewCinema
0 | 0

1 | 686

19

22.12.2011 12:30

Зарубежное кино [DVDRip, Low-Res HDRip, и т.д.] Ковбои против пришельцев / Cowboys & Aliens (Джон Фавро) [2011 г., Фантастика, боевик, триллер, вестерн, BDRip-AVC] Dub Чертёнок
8 | 0

0 | 829

19

04.05.2013 22:42


Яндекс.Метрика powered by Sphinx


В Н И М А Н И Е
Сайт не распространяет и не хранит электронные версии произведений, а лишь бесплатно и без коммерческой выгоды (не требуя взамен платы,
SMS и т.д.) предоставляет доступ к создаваемому пользователями каталогу ссылок на торрент-файлы, которые содержат только списки хеш-сумм.
Убедительная просьба с жалобами обращаться напрямую к пользователю, разместившему торрент файл.

Вверх