Loading...
Error

Другая Бовари / Джемма Бовери / Gemma Bovery (Анн Фонтэн) [2014 г., драма, мелодрама, комедия, HDRip] Dub

Статистика раздачи
Размер:  1,46 GB   |    Зарегистрирован:  1 год 4 месяца   |    Скачан:  32 раза

Полного источника не было: 6 месяцев

Сидов:  0  |  0 KB/s  ]   Личеров:  0  |  0 KB/s  ]

* - сиды/пиры с внешних источников

   
 
Автор Сообщение

makkol Пол:Муж

17-Июл-2015 14:04

Другая Бовари / Джемма Бовери / Gemma Bovery
«Жизнь ярче романа»


Год выпуска: 2014
Жанр: драма, мелодрама, комедия
Производство: Франция [Albertine Productions, Ciné@, Gaumont, Cinéfrance 1888, France 2 Cinéma]
Режиссер: Анн Фонтэн
В ролях: Фабрис Лукини, Джемма Артертон, Джейсон Флеминг, Изабель Канделье, Нильс Шнайдер, Мел Райдо, Эльза Зильберштейн, Пип Торренс, Кейси Моттет Кляйн, Эдит Скоб
Сюжет фильма:
Бывший парижский хипстер Мартин становится пекарем в деревне. Все, что осталось от его юношеских амбиций — это живое воображение и страсть к литературе. Однажды, на небольшой ферме по соседству, поселяется английская пара, Джемма и Чарльз Бовери. Их имена и поведение очень напоминают Мартину персонажей из его любимых книг, что приводит его в восторг. Но вот только Джемма не читала классику…

  • Мировая премьера: 24 августа 2014
  • Российская премьера: 7 мая 2015


Релиз: Лицензия

Качество видео: HDRip

Продолжительность: 01:39:05
Формат: AVI
Видео: XviD, 720x304, 24.000 fps, 1652 kbps
Аудио: русский, дублированный, AC3 5.1, 48 kHz, 448 kbps

Код:

Общее
Полное имя                               : G.b0BePY.2014.D.HDRip.1.46Gb.avi
Формат                                   : AVI
Формат/Информация                        : Audio Video Interleave
Размер файла                             : 1,46 Гбайт
Продолжительность                        : 1 ч. 39 м.
Общий поток                              : 2109 Кбит/сек
Программа кодирования                    : VirtualDubMod 1.5.10.2 (build 2540/release)
Библиотека кодирования                   : VirtualDubMod build 2540/release

Видео
Идентификатор                            : 0
Формат                                   : MPEG-4 Visual
Профиль формата                          : Advanced Simple@L5
Параметр BVOP формата                    : 2
Параметр QPel формата                    : Нет
Параметр GMC формата                     : Без точки перехода
Параметр матрицы формата                 : Default (MPEG)
Идентификатор кодека                     : XVID
Идентификатор кодека/Подсказка           : XviD
Продолжительность                        : 1 ч. 39 м.
Битрейт                                  : 1652 Кбит/сек
Ширина                                   : 720 пикселей
Высота                                   : 304 пикселя
Соотношение сторон                       : 2,35:1
Частота кадров                           : 24,000 кадра/сек
Цветовое пространство                    : YUV
Субдискретизация насыщенности            : 4:2:0
Битовая глубина                          : 8 бит
Тип развёртки                            : Прогрессивная
Метод сжатия                             : С потерями
Бит/(Пиксели*Кадры)                      : 0.299
Размер потока                            : 1,08 Гбайт (74%)
Библиотека кодирования                   : XviD 1.2.1 (UTC 2008-12-04)

Аудио
Идентификатор                            : 1
Формат                                   : AC-3
Формат/Информация                        : Audio Coding 3
Расширение режима                        : CM (complete main)
Параметр Endianness формата              : Big
Идентификатор кодека                     : 2000
Продолжительность                        : 1 ч. 39 м.
Вид битрейта                             : Постоянный
Битрейт                                  : 448 Кбит/сек
Каналы                                   : 6 каналов
Расположение каналов                     : Front: L C R, Side: L R, LFE
Частота                                  : 48,0 КГц
Битовая глубина                          : 16 бит
Метод сжатия                             : С потерями
Размер потока                            : 317 Мбайт (21%)
Выравнивание                             : Разделение по промежуткам
picpicpicpicpic
Для увеличения картинки щелкните мышкой по превью

Этот торрент недоступен для скачивания без регистрации, однако доступен по публичной magnet-ссылке (источники с публичных трекеров). Перед использованием ссылки прочтите, пожалуйста Пользовательское соглашение, а также как можно дольше оставайтесь на раздаче! Для того, чтобы скачать сам торрент-файл (который видит больше источников), а также для того, чтобы поблагодарить релизера, вам необходимо зарегистрироваться. Если регистрироваться лень - вы можете также попробовать скачать релиз по нашим партнерским ссылкам ниже.

[underverse.su].t56063.torrent
Трекер: Зарегистрирован   [ 17.07.2015 14:04 ]  

Статус: проверено (by makkol at 01.08.2015 12:12)
Поблагодарили: пока никто не поблагодарил...
Тип торрента: публичный - доступные источники с открытых трекеров: 
Размер: 1,46 GB (занимает 1/3 DVDR, для записи нужно 1 болванка DVDR/RW)
 
 
Похожие темы
Форум Тема Автор Торрент Отв. Посл. сооб.
Зарубежное кино [HDDVDRip / BDRip / WEB-DL / HDTV 1080/720р] Другая Бовари / Джемма Бовери / Gemma Bovery (Анн Фонтэн) [2014 г., драма, мелодрама, комедия, BDRip 720p] Dub + Original + Subs makkol
14 | 1

0 | 251

7

17.07.2015 14:16

Зарубежное кино [HDDVDRip / BDRip / WEB-DL / HDTV 1080/720р] Другая Бовари / Джемма Бовери / Gemma Bovery (Анн Фонтэн) [2014 г., драма, мелодрама, комедия, BDRip 1080p] Dub + Original + Subs makkol
9 | 0

0 | 418

5

17.07.2015 14:29


Яндекс.Метрика powered by Sphinx


В Н И М А Н И Е
Сайт не распространяет и не хранит электронные версии произведений, а лишь бесплатно и без коммерческой выгоды (не требуя взамен платы,
SMS и т.д.) предоставляет доступ к создаваемому пользователями каталогу ссылок на торрент-файлы, которые содержат только списки хеш-сумм.
Убедительная просьба с жалобами обращаться напрямую к пользователю, разместившему торрент файл.

Вверх