Loading...
Error

Внутреннее расследование (серии 1-12 из 16) (Вадим Саетгалиев) [2015 г., боевик, детектив, криминал, SatRip] (обновляемая)

Статистика раздачи
Размер:  6,45 GB   |    Зарегистрирован:  1 год 2 месяца   |    Скачан:  21 раз

Полного источника не было: 1 день 3 часа

Сидов:  0  |  0 KB/s  ]   Личеров:  0  |  0 KB/s  ]

* - сиды/пиры с внешних источников

   
 
Автор Сообщение

nemos Пол:Муж

16-Июл-2015 16:03

Внутреннее расследование


Год выпуска: 2015
Жанр: боевик, детектив, криминал
Страна: Россия
Режиссер: Вадим Саетгалиев
В ролях: Дмитрий Певцов, Сергей Власов, Сергей Мардарь, Владимир Богданов, Алексей Лысенко, Андрей Родимов, Борис Чистяков, Филипп Чевычелов, Виталий Жигалин
Сюжет фильма:
Новая захватывающая история о нелегкой судьбе начальника убойного отдела Рустема Зайнулина. Современная полиция. Кто в ней – честный «мент»? Кто - «оборотень»? Зайнулина обвиняют в убийстве своего подчиненного - агента под прикрытием. Накануне этого убийства Зайнуллин узнает от своего агента где скрывается криминальный авторитет Низамов. Этот бандит уже давно разыскивается за убийства и Зайнуллин бросается по следу. Но почти сразу его задерживают сотрудники управления собственной безопасности (УСБ). Зачем начальнику убойного отдела понадобилось убивать своего коллегу, так ли уж прав глава отдела «спецопераций» Латунин, который преследует Зайнулина? Разобраться в этом призывают не так давно вернувшегося в строй с заслуженного отдыха полковника Щуку. Полковник не особо рвался возвращаться в органы, его принципы и слегка устаревшие взгляды на жизнь никого, похоже, в этом мире не вдохновляют. Но именно он – честный, опытный, крутой полицейский становится главой Управления собственной безопасности Петербурга. Такой как он не может не докопаться до правды.


Качество видео: SatRip

Продолжительность: 00:47:12 серия
Формат: AVI
Видео: XviD, 720x400, 1 429 kbps
Аудио: русский, AC3 2.0, 192 kbps

Код:

E:\Фильмы-1\Vnutrenie.rassledovanija.2015.SATRip.Files-x\01.Vnutrenie.rassledovanija.2015.SATRip.Files-x.avi
   General
      Complete name : E:\Фильмы-1\Vnutrenie.rassledovanija.2015.SATRip.Files-x\01.Vnutrenie.rassledovanija.2015.SATRip.Files-x.avi
      Format : AVI
      Format/Info : Audio Video Interleave
      File size : 550 MiB
      Duration : 47mn 12s
      Overall bit rate : 1 631 Kbps
      Writing application : VirtualDubMod 1.5.10.3 | www.virtualdub-fr.org || (build 2550/release)
      Writing library : VirtualDubMod build 2550/release
   Video #0
      ID : 0
      Format : MPEG-4 Visual
      Format profile : Advanced Simple@L5
      Format settings, BVOP : 1
      Format settings, QPel : No
      Format settings, GMC : No warppoints
      Format settings, Matrix : Custom
      Codec ID : XVID
      Codec ID/Hint : XviD
      Duration : 47mn 12s
      Bit rate : 1 429 Kbps
      Width : 720 pixels
      Height : 400 pixels
      Display aspect ratio : 16:9
      Frame rate : 25.000 fps
      Color space : YUV
      Chroma subsampling : 4:2:0
      Bit depth : 8 bits
      Scan type : Progressive
      Compression mode : Lossy
      Bits/(Pixel*Frame) : 0.198
      Stream size : 482 MiB (88%)
      Writing library : XviD 73
   Audio #1
      ID : 1
      Format : AC-3
      Format/Info : Audio Coding 3
      Mode extension : CM (complete main)
      Format settings, Endianness : Big
      Codec ID : 2000
      Duration : 47mn 12s
      Bit rate mode : Constant
      Bit rate : 192 Kbps
      Channel(s) : 2 channels
      Channel positions : Front: L R
      Sampling rate : 48.0 KHz
      Bit depth : 16 bits
      Compression mode : Lossy
      Stream size : 64.8 MiB (12%)
      Alignment : Split accross interleaves
      Interleave, duration : 40 ms (1.00 video frame)
      Interleave, preload duration : 500 ms
picpicpicpic
Для увеличения картинки щелкните мышкой по превью

Этот торрент недоступен для скачивания без регистрации, однако доступен по публичной magnet-ссылке (источники с публичных трекеров). Перед использованием ссылки прочтите, пожалуйста Пользовательское соглашение, а также как можно дольше оставайтесь на раздаче! Для того, чтобы скачать сам торрент-файл (который видит больше источников), а также для того, чтобы поблагодарить релизера, вам необходимо зарегистрироваться. Если регистрироваться лень - вы можете также попробовать скачать релиз по нашим партнерским ссылкам ниже.

[underverse.su].t57966.torrent
Трекер: Зарегистрирован   [ 07.09.2015 20:09 ]  

Статус: T временная (by nemos at 07.09.2015 20:09)
Поблагодарили: 4 человека
Тип торрента: публичный - доступные источники с открытых трекеров: 
Размер: 6,45 GB (занимает 1,47 DVDR, для записи нужно 2 болванки DVDR/RW)
 
 
Похожие темы
Форум Тема Автор Торрент Отв. Посл. сооб.
Зарубежное кино [DVDRip, Low-Res HDRip, и т.д.] Внутреннее пространство / The Inner Room (Джек Гастелбондо) [2011 г., ужасы, триллер, детектив, DVDRip] VO [Хихидок] RG NewCinema
2 | 0

0 | 1219

16

07.03.2013 07:10

Информационно-аналитические передачи Внутреннее дело / Инсайдеры / Inside Job [2010 г., Документальное, криминал, HDRip] tom.jerry
0 | 0

0 | 645

2

27.01.2012 17:08


Яндекс.Метрика powered by Sphinx


В Н И М А Н И Е
Сайт не распространяет и не хранит электронные версии произведений, а лишь бесплатно и без коммерческой выгоды (не требуя взамен платы,
SMS и т.д.) предоставляет доступ к создаваемому пользователями каталогу ссылок на торрент-файлы, которые содержат только списки хеш-сумм.
Убедительная просьба с жалобами обращаться напрямую к пользователю, разместившему торрент файл.

Вверх