Loading...
Error

Камни на валу / Камни на шанец / Kamienie na szaniec (Роберт Глиньский) [2014 г., военный, драма, HDRip] VO + Original

Статистика раздачи
Размер:  2,13 GB   |    Зарегистрирован:  1 год 4 месяца   |    Скачан:  14 раз

Полного источника не было: 9 месяцев

Сидов:  0  |  0 KB/s  ]   Личеров:  0  |  0 KB/s  ]

* - сиды/пиры с внешних источников

   
 
Автор Сообщение

makkol Пол:Муж

16-Июл-2015 12:37

Камни на валу / Камни на шанец / Kamienie na szaniec


Год выпуска: 2014
Жанр: военный, драма
Производство: Польша [Monolith Films]
Режиссер: Роберт Глиньский
В ролях: Томаш Жентек, Марцель Сабат, Камиль Шептицкий, Войцех Желинский, Анджей Хыра, Данута Стэнка, Ольгерд Лукашевич, Марьян Дзендзель, Филип Плавяк, Мариуш Якусь
Сюжет фильма:
Экранизация одноименного романа писателя Александра Каминского. Трое друзей - Алек, Зоська и Рыжий, скауты, выпускники средней школы в Варшаве, строят амбициозные планы на будущее, которые прерывает сентябрь 1939 года. Они вступают вo взрослую жизнь в драматическое время, которое ставит их перед выбором - выжить любой ценой или присоединиться к борцам за свободу родины, рискуя всем. Воспитанные в духе патриотизма, они решают бороться, становятся солдатами и хоть каждый день сталкиваются со смертью, но даже в это жестокое время умеют жить полной жизнью. Сражаются самоотверженно и уходят "как камни, брошенные Богом на шанец", оставляя после себя уроки большой дружбы, чести и любви к Родине.

  • Мировая премьера: 7 марта 2014


Перевод: Professor
Озвучивание: Project_Web_Money

Качество видео: HDRip

Продолжительность: 01:51:40
Формат: AVI
Видео: XviD, 720x304, 23.976 fps, 2071 kbps
Аудио #1: русский, любительский одноголосый закадровый, AC3 2.0, 48 kHz, 192 kbps
Аудио #2: польский, оригинал, AC3 5.1, 48 kHz, 448 kbps

Код:

Общее
Полное имя                               : Камни_на_валу_VO_Project_Web_Money.avi
Формат                                   : AVI
Формат/Информация                        : Audio Video Interleave
Профиль формата                          : OpenDML
Размер файла                             : 2,13 Гбайт
Продолжительность                        : 1 ч. 51 м.
Общий поток                              : 2729 Кбит/сек
Программа кодирования                    : VirtualDubModRus 1.5.10.2 (build 2542/release)
Библиотека кодирования                   : VirtualDubMod build 2542/release

Видео
Идентификатор                            : 0
Формат                                   : MPEG-4 Visual
Профиль формата                          : Advanced Simple@L4
Параметр BVOP формата                    : 2
Параметр QPel формата                    : Нет
Параметр GMC формата                     : Без точки перехода
Параметр матрицы формата                 : Default (H.263)
Идентификатор кодека                     : DIVX
Идентификатор кодека/Информация          : Project Mayo
Идентификатор кодека/Подсказка           : DivX 4
Продолжительность                        : 1 ч. 51 м.
Битрейт                                  : 2071 Кбит/сек
Ширина                                   : 720 пикселей
Высота                                   : 304 пикселя
Соотношение сторон                       : 2,35:1
Частота кадров                           : 23,976 кадра/сек
Цветовое пространство                    : YUV
Субдискретизация насыщенности            : 4:2:0
Битовая глубина                          : 8 бит
Тип развёртки                            : Прогрессивная
Метод сжатия                             : С потерями
Бит/(Пиксели*Кадры)                      : 0.395
Размер потока                            : 1,62 Гбайт (76%)
Библиотека кодирования                   : XviD 64

Аудио #1
Идентификатор                            : 1
Формат                                   : AC-3
Формат/Информация                        : Audio Coding 3
Расширение режима                        : CM (complete main)
Параметр Endianness формата              : Big
Идентификатор кодека                     : 2000
Продолжительность                        : 1 ч. 51 м.
Вид битрейта                             : Постоянный
Битрейт                                  : 192 Кбит/сек
Каналы                                   : 2 канала
Расположение каналов                     : Front: L R
Частота                                  : 48,0 КГц
Битовая глубина                          : 16 бит
Метод сжатия                             : С потерями
Размер потока                            : 153 Мбайт (7%)
Выравнивание                             : Разделение по промежуткам
Продолжительность промежутка             : 42  мс. (1,00 видеокадр)
Время предзагрузки промежутка            : 500  мс.

Аудио #2
Идентификатор                            : 2
Формат                                   : AC-3
Формат/Информация                        : Audio Coding 3
Расширение режима                        : CM (complete main)
Параметр Endianness формата              : Big
Идентификатор кодека                     : 2000
Продолжительность                        : 1 ч. 51 м.
Вид битрейта                             : Постоянный
Битрейт                                  : 448 Кбит/сек
Каналы                                   : 6 каналов
Расположение каналов                     : Front: L C R, Side: L R, LFE
Частота                                  : 48,0 КГц
Битовая глубина                          : 16 бит
Метод сжатия                             : С потерями
Размер потока                            : 358 Мбайт (16%)
Выравнивание                             : Разделение по промежуткам
Продолжительность промежутка             : 42  мс. (1,00 видеокадр)
Время предзагрузки промежутка            : 500  мс.
picpicpicpicpic
Для увеличения картинки щелкните мышкой по превью

Этот торрент недоступен для скачивания без регистрации, однако доступен по публичной magnet-ссылке (источники с публичных трекеров). Перед использованием ссылки прочтите, пожалуйста Пользовательское соглашение, а также как можно дольше оставайтесь на раздаче! Для того, чтобы скачать сам торрент-файл (который видит больше источников), а также для того, чтобы поблагодарить релизера, вам необходимо зарегистрироваться. Если регистрироваться лень - вы можете также попробовать скачать релиз по нашим партнерским ссылкам ниже.

[underverse.su].t55996.torrent
Трекер: Зарегистрирован   [ 16.07.2015 12:37 ]  

Статус: проверено (by makkol at 01.08.2015 12:41)
Поблагодарили: пока никто не поблагодарил...
Тип торрента: публичный - доступные источники с открытых трекеров: 
Размер: 2,13 GB (занимает 0,49 DVDR, для записи нужно 1 болванка DVDR/RW)
 
 

Яндекс.Метрика powered by Sphinx


В Н И М А Н И Е
Сайт не распространяет и не хранит электронные версии произведений, а лишь бесплатно и без коммерческой выгоды (не требуя взамен платы,
SMS и т.д.) предоставляет доступ к создаваемому пользователями каталогу ссылок на торрент-файлы, которые содержат только списки хеш-сумм.
Убедительная просьба с жалобами обращаться напрямую к пользователю, разместившему торрент файл.

Вверх