Loading...
Error

Оно / It Follows (Дэвид Роберт Митчелл) [2014 г., ужасы, триллер, детектив, HDRip] Dub (Line)

Статистика раздачи
Размер:  1,45 GB   |    Зарегистрирован:  1 год 4 месяца   |    Скачан:  53 раза
Сидов:  1  |  224 KB/s  ]   Личеров:  0  |  0 KB/s  ]

* - сиды/пиры с внешних источников

   
 
Автор Сообщение

makkol Пол:Муж

16-Июл-2015 12:17

Оно / It Follows
«Следует за тобой»


Год выпуска: 2014
Жанр: ужасы, триллер, детектив
Производство: США [Northern Lights Films, Animal Kingdom, Two Flints]
Режиссер: Дэвид Роберт Митчелл
В ролях: Кейр Гилкрист, Carollette Phillips, Лорен Басс, Оливия Луккарди, Лили Сепе, Майка Монро, Джейк Вири, Дэниэл Дзоватто, Чарльз Гертнер, Бэйли Спрай
Сюжет фильма:
После сексуальной связи 19-летнюю девушку по имени Джей начинают мучать странные видения и непреодолимое чувство того, что кто-то или что-то за ней следит…

  • Мировая премьера: 17 мая 2014
  • Российская премьера: 25 июня 2015


Качество видео: HDRip

Продолжительность: 01:40:13
Формат: AVI
Видео: XviD, 720x304 (2.35:1), 23.976 fps, 1685 kbps
Аудио: русский, дублированный (чистый звук), AC3 2.0, 48 kHz, 384 kbps

Код:

Общее
Полное имя                               : It.Follows.2014.D.HDRip.avi
Формат                                   : AVI
Формат/Информация                        : Audio Video Interleave
Размер файла                             : 1,45 Гбайт
Продолжительность                        : 1 ч. 40 м.
Общий поток                              : 2078 Кбит/сек
Программа кодирования                    : VirtualDubMod 1.5.10.2 (build 2540/release)
Библиотека кодирования                   : VirtualDubMod build 2540/release

Видео
Идентификатор                            : 0
Формат                                   : MPEG-4 Visual
Идентификатор кодека                     : XVID
Идентификатор кодека/Подсказка           : XviD
Продолжительность                        : 1 ч. 40 м.
Битрейт                                  : 1685 Кбит/сек
Ширина                                   : 720 пикселей
Высота                                   : 304 пикселя
Соотношение сторон                       : 2,35:1
Частота кадров                           : 23,976 кадра/сек
Цветовое пространство                    : YUV
Субдискретизация насыщенности            : 4:2:0
Метод сжатия                             : С потерями
Размер потока                            : 804 Мбайт (54%)

Аудио
Идентификатор                            : 1
Формат                                   : AC-3
Формат/Информация                        : Audio Coding 3
Расширение режима                        : CM (complete main)
Параметр Endianness формата              : Big
Идентификатор кодека                     : 2000
Продолжительность                        : 1 ч. 40 м.
Вид битрейта                             : Постоянный
Битрейт                                  : 384 Кбит/сек
Каналы                                   : 2 канала
Расположение каналов                     : Front: L R
Частота                                  : 48,0 КГц
Битовая глубина                          : 16 бит
Метод сжатия                             : С потерями
Размер потока                            : 680 Мбайт (46%)
Выравнивание                             : Разделение по промежуткам
Продолжительность промежутка             : 42  мс. (1,00 видеокадр)
picpicpicpicpic
Для увеличения картинки щелкните мышкой по превью

Этот торрент недоступен для скачивания без регистрации, однако доступен по публичной magnet-ссылке (источники с публичных трекеров). Перед использованием ссылки прочтите, пожалуйста Пользовательское соглашение, а также как можно дольше оставайтесь на раздаче! Для того, чтобы скачать сам торрент-файл (который видит больше источников), а также для того, чтобы поблагодарить релизера, вам необходимо зарегистрироваться. Если регистрироваться лень - вы можете также попробовать скачать релиз по нашим партнерским ссылкам ниже.

[underverse.su].t55994.torrent
Трекер: Зарегистрирован   [ 16.07.2015 12:17 ]  

Статус: проверено (by nemos at 30.07.2015 12:49)
Поблагодарили: 1 человек
Тип торрента: публичный - доступные источники с открытых трекеров: 
Размер: 1,45 GB (занимает 1/3 DVDR, для записи нужно 1 болванка DVDR/RW)
 
 
Похожие темы
Форум Тема Автор Торрент Отв. Посл. сооб.
Зарубежное кино [DVDRip, Low-Res HDRip, и т.д.] Оно / It Follows (Дэвид Роберт Митчелл) [2014 г., ужасы, детектив, WEB-DLRip] AVO [А.Матвеев] + Original Паукан
1 | 0

0 | 466

41

20.05.2015 16:41

T Зарубежное кино [DVDRip, Low-Res HDRip, и т.д.] Оно / It Follows (Дэвид Роберт Митчелл) [2014 г., ужасы, триллер, детектив, HDRip] Dub makkol
68 | 0

0 | 558

30

30.07.2015 11:31

Зарубежное кино [HDDVDRip / BDRip / WEB-DL / HDTV 1080/720р] Оно / It Follows (Дэвид Роберт Митчелл) [2014 г., ужасы, триллер, детектив, BDRip 1080p] Dub + AVO + Original + Subs makkol
40 | 0

0 | 709

21

30.07.2015 11:45


Яндекс.Метрика powered by Sphinx


В Н И М А Н И Е
Сайт не распространяет и не хранит электронные версии произведений, а лишь бесплатно и без коммерческой выгоды (не требуя взамен платы,
SMS и т.д.) предоставляет доступ к создаваемому пользователями каталогу ссылок на торрент-файлы, которые содержат только списки хеш-сумм.
Убедительная просьба с жалобами обращаться напрямую к пользователю, разместившему торрент файл.

Вверх