Loading...
Error

Толстяк против всех / Paul Blart: Mall Cop 2 (Энди Фикмен) [2115 г., боевик, комедия, BDRip] MVO

Статистика раздачи
Размер:  1,46 GB   |    Зарегистрирован:  1 год 4 месяца   |    Скачан:  65 раз

Полного источника не было: 7 дней

Сидов:  0  |  0 KB/s  ]   Личеров:  0  |  0 KB/s  ]

* - сиды/пиры с внешних источников

   
 
Автор Сообщение

makkol Пол:Муж

16-Июл-2015 11:31

Толстяк против всех / Paul Blart: Mall Cop 2
«Vegas has a new high roller»


Год выпуска: 2115
Жанр: боевик, комедия
Производство: США [Columbia Pictures, Happy Madison Productions, Hey Eddie]
Режиссер: Энди Фикмен
В ролях: Кевин Джеймс, Рейни Родригес, Эдуардо Верастеги, Даниэлла Алонсо, Нил МакДонаф, Дэвид Генри, Д.Б. Вудсайд, Николас Туртурро, Лони Лав, Гари Валентайн
Сюжет фильма:
Охранник Пол отправляется в Лас-Вегас, чтобы посетить посвященную охране выставку вместе со своей дочерью Майей, прежде чем она уедет в колледж. На выставке Пол случайно узнает об ограблении и решает задержать преступников…

  • Мировая премьера: 9 апреля 2015


Качество видео: BDRip

Продолжительность: 01:34:01
Формат: AVI
Видео: XviD, 720x384 (1.85:1), 23.976 fps, 1824 kbps
Аудио: русский, профессиональный многоголосый закадровый (iTunes), AC3 5.1, 48 kHz, 384 kbps

Код:

Общее
Полное имя                               :Tolstjak.protiv.vseh.2015.P.BDRip.avi
Формат                                   : AVI
Формат/Информация                        : Audio Video Interleave
Размер файла                             : 1,45 Гбайт
Продолжительность                        : 1 ч. 34 м.
Общий поток                              : 2215 Кбит/сек
Программа кодирования                    : VirtualDubMod 1.5.10.3 | | (build 2550/release)
Библиотека кодирования                   : VirtualDubMod build 2550/release

Видео
Идентификатор                            : 0
Формат                                   : MPEG-4 Visual
Профиль формата                          : Advanced Simple@L5
Параметр BVOP формата                    : 2
Параметр QPel формата                    : Нет
Параметр GMC формата                     : Без точки перехода
Параметр матрицы формата                 : Default (MPEG)
Идентификатор кодека                     : XVID
Идентификатор кодека/Подсказка           : XviD
Продолжительность                        : 1 ч. 34 м.
Битрейт                                  : 1824 Кбит/сек
Ширина                                   : 720 пикселей
Высота                                   : 384 пикселя
Соотношение сторон                       : 1,85:1
Частота кадров                           : 23,976 кадра/сек
Цветовое пространство                    : YUV
Субдискретизация насыщенности            : 4:2:0
Битовая глубина                          : 8 бит
Тип развёртки                            : Прогрессивная
Метод сжатия                             : С потерями
Бит/(Пиксели*Кадры)                      : 0.275
Размер потока                            : 1,20 Гбайт (82%)
Библиотека кодирования                   : XviD 1.2.1 (UTC 2008-12-04)

Аудио
Идентификатор                            : 1
Формат                                   : AC-3
Формат/Информация                        : Audio Coding 3
Расширение режима                        : CM (complete main)
Параметр Endianness формата              : Big
Идентификатор кодека                     : 2000
Продолжительность                        : 1 ч. 34 м.
Вид битрейта                             : Постоянный
Битрейт                                  : 384 Кбит/сек
Каналы                                   : 6 каналов
Расположение каналов                     : Front: L C R, Side: L R, LFE
Частота                                  : 48,0 КГц
Битовая глубина                          : 16 бит
Метод сжатия                             : С потерями
Размер потока                            : 258 Мбайт (17%)
Выравнивание                             : Разделение по промежуткам
Продолжительность промежутка             : 42  мс. (1,00 видеокадр)
Время предзагрузки промежутка            : 500  мс.
picpicpicpicpic
Для увеличения картинки щелкните мышкой по превью

Этот торрент недоступен для скачивания без регистрации, однако доступен по публичной magnet-ссылке (источники с публичных трекеров). Перед использованием ссылки прочтите, пожалуйста Пользовательское соглашение, а также как можно дольше оставайтесь на раздаче! Для того, чтобы скачать сам торрент-файл (который видит больше источников), а также для того, чтобы поблагодарить релизера, вам необходимо зарегистрироваться. Если регистрироваться лень - вы можете также попробовать скачать релиз по нашим партнерским ссылкам ниже.

[underverse.su].t55990.torrent
Трекер: Зарегистрирован   [ 16.07.2015 11:31 ]  

Статус: T временная (by makkol at 19.08.2015 00:06)
Поблагодарили: пока никто не поблагодарил...
Тип торрента: публичный - доступные источники с открытых трекеров: 
Размер: 1,46 GB (занимает 1/3 DVDR, для записи нужно 1 болванка DVDR/RW)
 
 
Похожие темы
Форум Тема Автор Торрент Отв. Посл. сооб.
Зарубежное кино [HDDVDRip / BDRip / WEB-DL / HDTV 1080/720р] Толстяк против всех / Paul Blart: Mall Cop 2 (Энди Фикмен) [2015 г., боевик, комедия, BDRip 720p] MVO + Original makkol
6 | 0

0 | 366

10

16.07.2015 11:41

Зарубежное кино [HDDVDRip / BDRip / WEB-DL / HDTV 1080/720р] Толстяк против всех / Paul Blart: Mall Cop 2 (Энди Фикмен) [2015 г., боевик, комедия, BDRip 1080p] MVO + Original + Subs (Shi, Eng) makkol
4 | 0

0 | 370

14

16.07.2015 11:56


Яндекс.Метрика powered by Sphinx


В Н И М А Н И Е
Сайт не распространяет и не хранит электронные версии произведений, а лишь бесплатно и без коммерческой выгоды (не требуя взамен платы,
SMS и т.д.) предоставляет доступ к создаваемому пользователями каталогу ссылок на торрент-файлы, которые содержат только списки хеш-сумм.
Убедительная просьба с жалобами обращаться напрямую к пользователю, разместившему торрент файл.

Вверх