Loading...
Error

Жгучая тайна / Burning Secret (Эндрю Биркин) [1988 г., драма, DVDRip] VO + Original

Статистика раздачи
Размер:  1,37 GB   |    Зарегистрирован:  1 год 4 месяца   |    Скачан:  3 раза

Полного источника не было: 3 месяца 8 дней

Сидов:  0  |  0 KB/s  ]   Личеров:  0  |  0 KB/s  ]

* - сиды/пиры с внешних источников

   
 
Автор Сообщение

makkol Пол:Муж

15-Июл-2015 12:22

Жгучая тайна / Burning Secret


Год выпуска: 1988
Жанр: драма
Производство: Великобритания , Германия [Vestron Pictures, B.A. Produktion]
Режиссер: Эндрю Биркин
В ролях: Клаус Мария Брандауэр, Фэй Данауэй, Дэвид Эбертс, Иэн Ричардсон, Джон Неттлтон, Мартин Оберниг, Вацлав Штекль, Владимир Поспишил, Карел Карас-Краточвил, Иво Ниедерле
Сюжет фильма:
Действие этой таинственной любовной истории, снятой по произведению Стефана Цвейга, происходит между двумя мировыми войнами. Фэй Данауэй - блистательная жена дипломата, привозит своего сына, страдающего от астмы, на австрийский горный курорт и там встречает эксцентричного, очаровательного барона, который сначала заводит дружбу с ее сыном, а затем разжигает в ней скрытую до времени жажду любви и страсти. О сыне, естественно, забывается.

  • Мировая премьера: 22 декабря 1988


Качество видео: DVDRip

Продолжительность: 01:40:26
Формат: AVI
Видео: DivX, 640x352, 25.000 fps, 1683 kbps
Аудио #1: русский, любительский одноголосый закадровый (Сергей Кузнецов), MP3 2.0, 48 kHz, 128 kbps
Аудио #2: английский, оригинал, MP3 2.0, 48 kHz, 128 kbps

Код:

Общее
Полное имя                               : Zguchaya.tajna.(Rus-Eng.avi
Формат                                   : AVI
Формат/Информация                        : Audio Video Interleave
Размер файла                             : 1,37 Гбайт
Продолжительность                        : 1 ч. 40 м.
Общий поток                              : 1953 Кбит/сек
Программа кодирования                    : VirtualDubMod 1.5.10.2 (build 2540/release)
Библиотека кодирования                   : VirtualDubMod build 2540/release

Видео
Идентификатор                            : 0
Формат                                   : MPEG-4 Visual
Параметр BVOP формата                    : Нет
Параметр QPel формата                    : Нет
Параметр GMC формата                     : Без точки перехода
Параметр матрицы формата                 : Default (H.263)
Идентификатор кодека                     : DX50
Идентификатор кодека/Подсказка           : DivX 5
Продолжительность                        : 1 ч. 40 м.
Битрейт                                  : 1683 Кбит/сек
Ширина                                   : 640 пикселей
Высота                                   : 352 пикселя
Соотношение сторон                       : 16:9
Частота кадров                           : 25,000 кадров/сек
Цветовое пространство                    : YUV
Субдискретизация насыщенности            : 4:2:0
Битовая глубина                          : 8 бит
Тип развёртки                            : Прогрессивная
Метод сжатия                             : С потерями
Бит/(Пиксели*Кадры)                      : 0.299
Размер потока                            : 1,18 Гбайт (86%)
Библиотека кодирования                   : DivX 5.2.1 (WaffleDay) (UTC 2004-09-08)

Аудио #1
Идентификатор                            : 1
Формат                                   : MPEG Audio
Версия формата                           : Version 1
Профиль формата                          : Layer 3
Режим                                    : Joint stereo
Расширение режима                        : MS Stereo
Идентификатор кодека                     : 55
Идентификатор кодека/Подсказка           : MP3
Продолжительность                        : 1 ч. 40 м.
Вид битрейта                             : Постоянный
Битрейт                                  : 128 Кбит/сек
Каналы                                   : 2 канала
Частота                                  : 48,0 КГц
Метод сжатия                             : С потерями
Размер потока                            : 92,0 Мбайт (7%)
Выравнивание                             : Соединение по промежуткам
Продолжительность промежутка             : 40  мс. (1,00 видеокадр)
Время предзагрузки промежутка            : 504  мс.
Библиотека кодирования                   : LAME3.96r
Настройки программы                      : -m j -V 4 -q 2 -lowpass 17.5 -b 128

Аудио #2
Идентификатор                            : 2
Формат                                   : MPEG Audio
Версия формата                           : Version 1
Профиль формата                          : Layer 3
Режим                                    : Joint stereo
Расширение режима                        : MS Stereo
Идентификатор кодека                     : 55
Идентификатор кодека/Подсказка           : MP3
Продолжительность                        : 1 ч. 40 м.
Вид битрейта                             : Постоянный
Битрейт                                  : 128 Кбит/сек
Каналы                                   : 2 канала
Частота                                  : 48,0 КГц
Метод сжатия                             : С потерями
Размер потока                            : 92,0 Мбайт (7%)
Выравнивание                             : Соединение по промежуткам
Продолжительность промежутка             : 40  мс. (1,00 видеокадр)
Время предзагрузки промежутка            : 504  мс.
Библиотека кодирования                   : LAME3.96r
Настройки программы                      : -m j -V 4 -q 2 -lowpass 17.5 -b 128
picpicpicpicpic
Для увеличения картинки щелкните мышкой по превью

Этот торрент недоступен для скачивания без регистрации, однако доступен по публичной magnet-ссылке (источники с публичных трекеров). Перед использованием ссылки прочтите, пожалуйста Пользовательское соглашение, а также как можно дольше оставайтесь на раздаче! Для того, чтобы скачать сам торрент-файл (который видит больше источников), а также для того, чтобы поблагодарить релизера, вам необходимо зарегистрироваться. Если регистрироваться лень - вы можете также попробовать скачать релиз по нашим партнерским ссылкам ниже.

[underverse.su].t55971.torrent
Трекер: Зарегистрирован   [ 15.07.2015 12:22 ]  

Статус: проверено (by makkol at 19.08.2015 00:04)
Поблагодарили: пока никто не поблагодарил...
Тип торрента: публичный - доступные источники с открытых трекеров: 
Размер: 1,37 GB (занимает 0,31 DVDR, для записи нужно 1 болванка DVDR/RW)
 
 

Яндекс.Метрика powered by Sphinx


В Н И М А Н И Е
Сайт не распространяет и не хранит электронные версии произведений, а лишь бесплатно и без коммерческой выгоды (не требуя взамен платы,
SMS и т.д.) предоставляет доступ к создаваемому пользователями каталогу ссылок на торрент-файлы, которые содержат только списки хеш-сумм.
Убедительная просьба с жалобами обращаться напрямую к пользователю, разместившему торрент файл.

Вверх