Loading...
Error

Мир Людовика / De wereld van Ludovic / Le Monde de Ludovic (Жан-Пьер Де Деккер) [1993 г., драма, TVRip] VO

Статистика раздачи
Размер:  1,12 GB   |    Зарегистрирован:  1 год 4 месяца   |    Скачан:  7 раз

Полного источника не было: 3 дня

Сидов:  0  |  0 KB/s  ]   Личеров:  0  |  0 KB/s  ]

* - сиды/пиры с внешних источников

   
 
Автор Сообщение

makkol Пол:Муж

15-Июл-2015 11:41

Мир Людовика / De wereld van Ludovic / Le Monde de Ludovic


Год выпуска: 1993
Жанр: драма
Производство: Бельгия , Нидерланды , Франция
Режиссер: Жан-Пьер Де Деккер
В ролях: Матиас Коппенс, Белла ван Мейл, Дидье Безас, Анник Кристанс, Петер Тёйнман, Вилл ван Кралинген, Тэйн Смитс, Лесли де Хрёйтер, Лудо Буссоц, Хильде вин Мигем
Сюжет фильма:
Заброшенный родителями Людовик встречает и влюбляется в Софи, дочь учительницы игры на фортепиано. Молодые люди тянутся друг к другу, бурное развитие их отношений приводит к неизбежному эксперименту, но их ловят с поличным. Влюбленные прячутся в заброшенных зданиях на берегу моря, однако их находят и разъединяют. Отец Софи делает все для того, чтобы они не встретились больше никогда. Проблема отцов и детей, совсем не детская любовь двенадцатилетних героев, безразличие внешнего мира, хрупкость отношений, попытки суицида и счастье прикосновений — всё это через призму восприятия славного мальчишки. Не случайно фильм называется «Мир Людовика».

  • Мировая премьера: 2 февраля 1993


Качество видео: TVRip

Продолжительность: 01:31:02
Формат: AVI
Видео: DivX, 512x304, 25.000 fps, 1553 kbps
Аудио: русский, любительский одноголосый закадровый (Василий Кошкин), MP3 2.0, 48 kHz, 192 kbps

Код:

General
Complete name : De wereld van Ludovic.avi
Format : AVI
Format/Info : Audio Video Interleave
File size : 1.12 GiB
Duration : 1h 31mn
Overall bit rate : 1 755 Kbps
Writing application : VirtualDubMod 1.5.10.2 (build 2540/release)
Writing library : VirtualDubMod build 2540/release

Video
ID : 0
Format : MPEG-4 Visual
Format settings, BVOP : Yes
Format settings, QPel : No
Format settings, GMC : No warppoints
Format settings, Matrix : Default (H.263)
Codec ID : DX50
Codec ID/Hint : DivX 5
Duration : 1h 31mn
Bit rate : 1 553 Kbps
Width : 512 pixels
Height : 304 pixels
Display aspect ratio : 1.684
Frame rate : 25.000 fps
Color space : YUV
Chroma subsampling : 4:2:0
Bit depth : 8 bits
Scan type : Progressive
Compression mode : Lossy
Bits/(Pixel*Frame) : 0.399
Stream size : 1 011 MiB (89%)
Writing library : DivX 5.2.1 (WaffleDay) (UTC 2004-09-08)

Audio
ID : 1
Format : MPEG Audio
Format version : Version 1
Format profile : Layer 3
Mode : Joint stereo
Mode extension : MS Stereo
Codec ID : 55
Codec ID/Hint : MP3
Duration : 1h 31mn
Bit rate mode : Constant
Bit rate : 192 Kbps
Channel(s) : 2 channels
Sampling rate : 48.0 KHz
Compression mode : Lossy
Stream size : 125 MiB (11%)
Alignment : Aligned on interleaves
Interleave, duration : 40 ms (1.00 video frame)
Interleave, preload duration : 504 ms
Writing library : LAME3.99r
Encoding settings : -m j -V 4 -q 3 -lowpass 18.6 -b 192
picpicpicpicpic
Для увеличения картинки щелкните мышкой по превью

Этот торрент недоступен для скачивания без регистрации, однако доступен по публичной magnet-ссылке (источники с публичных трекеров). Перед использованием ссылки прочтите, пожалуйста Пользовательское соглашение, а также как можно дольше оставайтесь на раздаче! Для того, чтобы скачать сам торрент-файл (который видит больше источников), а также для того, чтобы поблагодарить релизера, вам необходимо зарегистрироваться. Если регистрироваться лень - вы можете также попробовать скачать релиз по нашим партнерским ссылкам ниже.

[underverse.su].t55970.torrent
Трекер: Зарегистрирован   [ 15.07.2015 11:41 ]  

Статус: проверено (by makkol at 19.08.2015 00:02)
Поблагодарили: пока никто не поблагодарил...
Тип торрента: публичный - доступные источники с открытых трекеров: 
Размер: 1,12 GB (занимает 0,25 DVDR, для записи нужно 1 болванка DVDR/RW)
 
 

Яндекс.Метрика powered by Sphinx


В Н И М А Н И Е
Сайт не распространяет и не хранит электронные версии произведений, а лишь бесплатно и без коммерческой выгоды (не требуя взамен платы,
SMS и т.д.) предоставляет доступ к создаваемому пользователями каталогу ссылок на торрент-файлы, которые содержат только списки хеш-сумм.
Убедительная просьба с жалобами обращаться напрямую к пользователю, разместившему торрент файл.

Вверх