Loading...
Error

Я вижу, я вижу / Ich seh, Ich seh / Goodnight Mommy (Северин Фиала, Вероника Франц) [2014 г., ужасы, фэнтези, триллер, драма, DVDRip] VO

Статистика раздачи
Размер:  1,36 GB   |    Зарегистрирован:  1 год 4 месяца   |    Скачан:  21 раз

Полного источника не было: 6 месяцев

Сидов:  0  |  0 KB/s  ]   Личеров:  0  |  0 KB/s  ]

* - сиды/пиры с внешних источников

   
 
Автор Сообщение

makkol Пол:Муж

15-Июл-2015 09:36

Я вижу, я вижу / Ich seh, Ich seh / Goodnight Mommy


Год выпуска: 2014
Жанр: ужасы, фэнтези, триллер, драма
Производство: Австрия [Ulrich Seidl Film Produktion GmbH]
Режиссер: Северин Фиала, Вероника Франц
В ролях: Сюзанна Вуэст, Элиас Шварц, Лукас Шварц, Ганс Эшер, Эльфрида Шатц, Карл Паркер, Кристиан Штайндль, Кристиан Шац, Эрвин Шмальзбаузер
Сюжет фильма:
На окраине кукурузного поля в сельской глуши стоит дом. 10-летние близнецы ждут возвращения своей матери. Когда она приходит, ее лицо закрывают бинты после пластической операции. С этого момента все меняется — отчужденная и холодная, она постепенно изолирует их семью от внешнего мира. Мальчики начинают подозревать, что эта женщина — не их мать, и пытаются выяснить правду любой ценой

  • Мировая премьера: 30 августа 2014


Перевод: San-ya ака Александр Голованов
Озвучивание: Хихикающий доктор

Качество видео: DVDRip

Продолжительность: 01:39:49
Формат: AVI
Видео: XviD, 720x304, 25.000 fps, 1756 kbps
Аудио: русский, любительский одноголосый закадровый, MP3 2.0, 44.1 kHz, 192 kbps

Код:

Общее
Полное имя                               : Ya.vizhu.ya.vizhu.2014.L1.DVDRip.1400Mb.avi
Формат                                   : AVI
Формат/Информация                        : Audio Video Interleave
Размер файла                             : 1,36 Гбайт
Продолжительность                        : 1 ч. 39 м.
Общий поток                              : 1958 Кбит/сек
Программа кодирования                    : VirtualDubMod 1.5.10.2 (build 2540/release)
Библиотека кодирования                   : VirtualDubMod build 2540/release

Видео
Идентификатор                            : 0
Формат                                   : MPEG-4 Visual
Профиль формата                          : Advanced Simple@L5
Параметр BVOP формата                    : 2
Параметр QPel формата                    : Нет
Параметр GMC формата                     : Без точки перехода
Параметр матрицы формата                 : Выборочная
Идентификатор кодека                     : XVID
Идентификатор кодека/Подсказка           : XviD
Продолжительность                        : 1 ч. 39 м.
Битрейт                                  : 1756 Кбит/сек
Ширина                                   : 720 пикселей
Высота                                   : 304 пикселя
Соотношение сторон                       : 2,35:1
Частота кадров                           : 25,000 кадров/сек
Цветовое пространство                    : YUV
Субдискретизация насыщенности            : 4:2:0
Битовая глубина                          : 8 бит
Тип развёртки                            : Прогрессивная
Метод сжатия                             : С потерями
Бит/(Пиксели*Кадры)                      : 0.307
Размер потока                            : 1,17 Гбайт (86%)
Библиотека кодирования                   : XviD 1.2.1 (UTC 2008-12-04)

Аудио
Идентификатор                            : 1
Формат                                   : MPEG Audio
Версия формата                           : Version 1
Профиль формата                          : Layer 3
Идентификатор кодека                     : 55
Идентификатор кодека/Подсказка           : MP3
Продолжительность                        : 1 ч. 39 м.
Вид битрейта                             : Постоянный
Битрейт                                  : 192 Кбит/сек
Каналы                                   : 2 канала
Частота                                  : 44,1 КГц
Метод сжатия                             : С потерями
Размер потока                            : 137 Мбайт (10%)
Выравнивание                             : Разделение по промежуткам
picpicpicpicpic
Для увеличения картинки щелкните мышкой по превью

Этот торрент недоступен для скачивания без регистрации, однако доступен по публичной magnet-ссылке (источники с публичных трекеров). Перед использованием ссылки прочтите, пожалуйста Пользовательское соглашение, а также как можно дольше оставайтесь на раздаче! Для того, чтобы скачать сам торрент-файл (который видит больше источников), а также для того, чтобы поблагодарить релизера, вам необходимо зарегистрироваться. Если регистрироваться лень - вы можете также попробовать скачать релиз по нашим партнерским ссылкам ниже.

[underverse.su].t55966.torrent
Трекер: Зарегистрирован   [ 15.07.2015 09:36 ]  

Статус: проверено (by makkol at 18.08.2015 23:55)
Поблагодарили: пока никто не поблагодарил...
Тип торрента: публичный - доступные источники с открытых трекеров: 
Размер: 1,36 GB (занимает 0,31 DVDR, для записи нужно 1 болванка DVDR/RW)
 
 
Похожие темы
Форум Тема Автор Торрент Отв. Посл. сооб.
Зарубежное кино [DVDRip, Low-Res HDRip, и т.д.] Я вижу, я вижу / Ich seh, Ich seh / Goodnight Mommy (Северин Фиала, Вероника Франц ) [2014 г., ужасы, фэнтези, триллер, драма, DVDRip-AVC] VO makkol
120 | 7

0 | 572

22

15.07.2015 09:50


Яндекс.Метрика powered by Sphinx


В Н И М А Н И Е
Сайт не распространяет и не хранит электронные версии произведений, а лишь бесплатно и без коммерческой выгоды (не требуя взамен платы,
SMS и т.д.) предоставляет доступ к создаваемому пользователями каталогу ссылок на торрент-файлы, которые содержат только списки хеш-сумм.
Убедительная просьба с жалобами обращаться напрямую к пользователю, разместившему торрент файл.

Вверх